<?xml version="1.0" standalone="no"?>
<!DOCTYPE svg PUBLIC "-//W3C//DTD SVG 1.1//EN" "http://www.w3.org/Graphics/SVG/1.1/DTD/svg11.dtd" >
<svg xmlns="http://www.w3.org/2000/svg">
<metadata>Generated by IcoMoon</metadata>
<defs>
<font id="icomoon" horiz-adv-x="1024">
<font-face units-per-em="1024" ascent="960" descent="-64" />
<missing-glyph horiz-adv-x="1024" />
<glyph unicode="&#x20;" horiz-adv-x="512" d="" />
<glyph unicode="&#xe900;" glyph-name="swipe" horiz-adv-x="926" d="M859.843 866.919h-264.569c-12.172 0-22.046-9.878-22.046-22.049s9.875-22.049 22.046-22.049h264.569c12.172 0 22.052 9.878 22.052 22.049s-9.88 22.049-22.052 22.049zM875.459 860.437l-88.191 88.19c-8.597 8.598-22.574 8.598-31.177 0-8.597-8.598-8.597-22.577 0-31.176l72.581-72.581-72.621-72.625c-8.602-8.598-8.602-22.577 0-31.176 4.148-4.122 9.759-6.436 15.606-6.436 5.852 0 11.464 2.314 15.612 6.436l88.191 88.191c8.597 8.6 8.597 22.577 0 31.176zM286.615 866.918h-264.57c-12.171 0-22.049-9.878-22.049-22.049s9.878-22.049 22.049-22.049h264.57c12.17 0 22.049 9.878 22.049 22.049s-9.878 22.049-22.049 22.049zM53.23 844.87l72.582 72.581c8.598 8.598 8.598 22.577 0 31.176s-22.577 8.598-31.176 0l-88.189-88.193c-8.598-8.598-8.598-22.577 0-31.176l88.191-88.191c4.149-4.123 9.76-6.438 15.609-6.438 5.644 0 11.288 2.16 15.566 6.481 8.598 8.598 8.598 22.577 0 31.176l-72.584 72.584zM837.812 514.158c-17.461 0.013-34.536-5.176-49.035-14.904-12.081 34.305-44.843 58.999-83.249 58.999-17.461 0.013-34.536-5.176-49.035-14.904-12.081 34.305-44.843 58.999-83.249 58.999-15.491 0.020-30.704-4.075-44.093-11.863v144.148c0 48.637-39.553 88.191-88.193 88.191-48.638 0-88.191-39.553-88.191-88.191v-374.807l-76.637 57.457c-45.417 34.083-110.061 29.542-150.319-10.674-25.795-25.792-25.795-67.728 0-93.526l314.001-314.042c37.482-37.482 87.352-58.116 140.354-58.116h103.315c133.698 0 242.522 108.78 242.522 242.517v242.528c0 48.636-39.553 88.189-88.191 88.189zM881.91 183.447c0-109.398-89.031-198.43-198.43-198.43h-103.315c-41.273 0-80.031 16.049-109.179 45.199l-314.002 314.042c-8.598 8.597-8.598 22.58 0 31.177 13.669 13.625 31.924 20.634 50.269 20.634 14.904 0 29.896-4.625 42.463-14.063l111.87-83.913c3.282-2.454 7.18-3.942 11.259-4.309s8.182 0.407 11.847 2.237c3.655 1.835 6.728 4.65 8.877 8.13s3.289 7.487 3.293 11.579v418.9c0 24.297 19.754 44.094 44.095 44.094s44.093-19.799 44.093-44.094v-330.715c0-12.167 9.88-22.046 22.052-22.046 12.167 0 22.046 9.88 22.046 22.046v110.239c0 24.297 19.754 44.094 44.093 44.094s44.093-19.799 44.093-44.094v-110.239c0-12.167 9.88-22.046 22.052-22.046 12.167 0 22.046 9.88 22.046 22.046v66.145c0 24.297 19.754 44.094 44.093 44.094 24.345 0 44.098-19.799 44.098-44.094v-66.145c0-12.167 9.875-22.046 22.046-22.046 12.167 0 22.046 9.88 22.046 22.046v22.052c0 24.294 19.754 44.093 44.093 44.093 24.345 0 44.098-19.799 44.098-44.093v-242.522z" />
<glyph unicode="&#xe901;" glyph-name="repeat" horiz-adv-x="1152" d="M569.129-61.325c-90.020 8.544-183.548 44.858-259.424 100.793l-36.493 26.899 32.858 37.427c18.072 20.582 33.818 37.427 34.99 37.427 1.17 0 19.745-12.109 41.274-26.918 77.587-53.357 141.803-73.439 236.014-73.842 75.998 0 117.944 9.459 188.19 43.859 40.070 19.629 58.95 33.875 101.605 76.697 42.47 42.637 56.928 61.907 76.383 101.804 33.286 68.27 43.635 112.215 43.635 185.288 0 72.581-10.227 116.311-43.315 185.18-19.488 40.556-32.762 58.212-76.338 101.515-57.274 56.903-102.681 84.796-173.138 106.37-216.715 66.333-451.464-65.776-513.287-288.875-18.109-65.35-18.872-63.652 28.575-63.652 22.293 0 40.532-1.764 40.532-3.806 0-4.27-135.044-239.65-136.416-237.73-6.182 8.634-135.732 236.264-135.732 238.482 0 1.671 19.276 3.064 42.834 3.064h42.833l6.609 39.089c35.085 207.513 184.313 369.43 386.583 419.454 64.422 15.929 175.275 17.182 235.267 2.692 297.336-72.032 468.527-375.51 373.488-662.123-39.994-120.607-126.661-224.254-242.34-289.828-43.571-24.691-127.961-52.051-173.586-56.256-20.704-1.946-46.76-4.269-57.907-5.293-11.146-1.018-39.809 0.019-63.695 2.285z" />
<glyph unicode="&#xe902;" glyph-name="upload" d="M967.067 353.169c-31.398 0-56.896-25.498-56.896-56.896v-202.285c0-11.799-4.6-22.898-12.999-31.298s-19.499-12.999-31.298-12.999h-707.848c-11.799 0-22.898 4.6-31.298 12.999s-12.999 19.499-12.999 31.298v202.285c0 31.398-25.498 56.896-56.896 56.896s-56.796-25.498-56.796-56.896v-202.285c0-42.197 16.399-81.894 46.297-111.692 29.798-29.798 69.495-46.297 111.692-46.297h707.948c42.197 0 81.894 16.399 111.692 46.297s46.297 69.495 46.297 111.692v202.285c0 31.398-25.498 56.896-56.896 56.896zM259.219 593.351c14.599 0 29.098 5.6 40.197 16.699l155.689 155.689v-469.466c0-31.398 25.498-56.896 56.896-56.896s56.896 25.498 56.896 56.896v469.466l155.689-155.789c11.099-11.099 25.698-16.699 40.197-16.699s29.098 5.6 40.197 16.699c22.198 22.198 22.198 58.196 0 80.494l-252.781 252.781c-1.2 1.2-2.5 2.3-3.8 3.4-0.1 0.1-0.2 0.2-0.3 0.3-0.6 0.5-1.2 1-1.8 1.4-0.1 0.1-0.2 0.2-0.3 0.3-0.6 0.5-1.2 0.9-1.9 1.3-0.1 0.1-0.3 0.2-0.4 0.3-0.6 0.4-1.2 0.8-1.9 1.2-0.2 0.1-0.3 0.2-0.5 0.3-0.6 0.4-1.2 0.7-1.8 1.1-0.2 0.1-0.4 0.2-0.6 0.3-0.6 0.3-1.2 0.6-1.7 0.9-0.3 0.1-0.5 0.3-0.8 0.4-0.5 0.3-1.1 0.5-1.6 0.7-0.3 0.1-0.6 0.3-1 0.4-0.5 0.2-1 0.4-1.5 0.6-0.4 0.2-0.8 0.3-1.2 0.4-0.4 0.2-0.9 0.3-1.3 0.4-0.5 0.2-0.9 0.3-1.4 0.4-0.4 0.1-0.8 0.2-1.2 0.3-0.5 0.1-1 0.3-1.5 0.4-0.4 0.1-0.7 0.2-1.1 0.3-0.5 0.1-1.1 0.2-1.6 0.4-0.3 0.2-0.7 0.2-1 0.3-0.5 0.1-1.1 0.2-1.6 0.3-0.4 0.1-0.8 0.1-1.3 0.2s-1 0.1-1.5 0.2c-0.6 0.1-1.1 0.1-1.7 0.1-0.4 0-0.7 0.1-1.1 0.1-1.9 0.1-3.8 0.1-5.6 0-0.4 0-0.9-0.1-1.3-0.1-0.5 0-1-0.1-1.5-0.1-0.6-0.1-1.1-0.1-1.7-0.2-0.3 0-0.7-0.1-1-0.1-0.6-0.1-1.2-0.2-1.9-0.3-0.3-0.2-0.5-0.2-0.8-0.3-0.6-0.1-1.3-0.3-1.9-0.4-0.3-0.1-0.5-0.1-0.8-0.2-0.6-0.2-1.2-0.3-1.8-0.5-0.3-0.1-0.6-0.2-0.9-0.2-0.6-0.2-1.2-0.4-1.7-0.6-0.3-0.1-0.6-0.2-0.9-0.3-0.5-0.2-1-0.4-1.6-0.6-0.4-0.1-0.7-0.3-1.1-0.4-0.5-0.2-0.9-0.4-1.4-0.6-0.4-0.2-0.8-0.4-1.2-0.5-0.4-0.2-0.8-0.4-1.2-0.6s-0.9-0.4-1.3-0.7c-0.4-0.2-0.7-0.4-1.1-0.6s-0.9-0.5-1.3-0.8c-0.4-0.2-0.7-0.4-1.1-0.7s-0.9-0.5-1.3-0.8c-0.4-0.3-0.7-0.5-1.1-0.8s-0.8-0.5-1.1-0.8c-0.4-0.3-0.9-0.7-1.3-1-0.3-0.2-0.6-0.4-0.9-0.7-0.6-0.5-1.2-1-1.8-1.6-0.1-0.1-0.2-0.2-0.3-0.2-0.8-0.7-1.5-1.4-2.2-2.1l-252.781-252.681c-22.198-22.198-22.198-58.196 0-80.494 11.099-11.099 25.698-16.599 40.297-16.599z" />
<glyph unicode="&#xe903;" glyph-name="download" d="M967.1 353.2c-31.4 0-56.9-25.5-56.9-56.9v-202.3c0-11.8-4.6-22.9-13-31.3s-19.5-13-31.3-13h-707.9c-11.8 0-22.9 4.6-31.3 13s-13 19.5-13 31.3v202.3c0 31.4-25.5 56.9-56.9 56.9s-56.8-25.5-56.8-56.9v-202.3c0-42.2 16.4-81.9 46.3-111.7 29.8-29.8 69.5-46.3 111.7-46.3h708c42.2 0 81.9 16.4 111.7 46.3s46.3 69.5 46.3 111.7v202.3c0 31.4-25.5 56.9-56.9 56.9zM471.8 256.1c1.2-1.2 2.5-2.4 3.8-3.4 0.1-0.1 0.2-0.2 0.3-0.2 0.6-0.5 1.2-1 1.8-1.4 0.1-0.1 0.2-0.2 0.3-0.3 0.6-0.5 1.2-0.9 1.9-1.3 0.1-0.1 0.2-0.2 0.4-0.3 0.6-0.4 1.3-0.8 1.9-1.2 0.2-0.1 0.3-0.2 0.5-0.3 0.6-0.4 1.2-0.7 1.8-1.1 0.2-0.1 0.4-0.2 0.6-0.3 0.6-0.3 1.2-0.6 1.7-0.9 0.3-0.1 0.5-0.3 0.8-0.4 0.5-0.3 1.1-0.5 1.6-0.7 0.3-0.1 0.7-0.3 1-0.4 0.5-0.2 1-0.4 1.4-0.6s0.8-0.3 1.2-0.5c0.4-0.2 0.9-0.3 1.3-0.4 0.5-0.2 0.9-0.3 1.4-0.5 0.4-0.1 0.8-0.2 1.2-0.3 0.5-0.1 1-0.3 1.6-0.4 0.4-0.1 0.7-0.2 1.1-0.2 0.5-0.1 1.1-0.3 1.6-0.4 0.4-0.1 0.7-0.1 1.1-0.2 0.6-0.1 1.1-0.2 1.7-0.3 0.4-0.1 0.8-0.1 1.2-0.2 0.5-0.1 1-0.1 1.5-0.2s1-0.1 1.6-0.1c0.4 0 0.8-0.1 1.2-0.1 0.9 0 1.9-0.1 2.8-0.1 0 0 0 0 0 0s0 0 0 0 0.1 0 0.1 0c0.9 0 1.8 0 2.7 0.1 0.5 0 1 0.1 1.4 0.1s0.9 0.1 1.3 0.1c0.6 0.1 1.2 0.1 1.8 0.2 0.3 0 0.6 0.1 1 0.1 0.6 0.1 1.3 0.2 1.9 0.3 0.3 0 0.5 0.1 0.8 0.1 0.7 0.1 1.3 0.3 1.9 0.4 0.3 0.1 0.5 0.1 0.8 0.2 0.6 0.2 1.3 0.3 1.9 0.5 0.3 0.1 0.5 0.1 0.8 0.2 0.6 0.2 1.2 0.4 1.8 0.6 0.3 0.1 0.6 0.2 0.9 0.3 0.5 0.2 1.1 0.4 1.6 0.6 0.3 0.1 0.7 0.3 1 0.4 0.5 0.2 0.9 0.4 1.4 0.6 0.4 0.2 0.8 0.3 1.2 0.5s0.8 0.4 1.3 0.6c0.4 0.2 0.8 0.4 1.3 0.6 0.4 0.2 0.8 0.4 1.1 0.6 0.4 0.2 0.9 0.5 1.3 0.7s0.7 0.5 1.1 0.7c0.4 0.3 0.8 0.5 1.3 0.8 0.4 0.3 0.8 0.5 1.1 0.8 0.4 0.3 0.7 0.5 1.1 0.8 0.5 0.3 0.9 0.7 1.3 1 0.3 0.2 0.6 0.4 0.8 0.7 0.6 0.5 1.3 1.1 1.9 1.6 0.1 0.1 0.2 0.1 0.2 0.2 0.8 0.7 1.5 1.4 2.2 2.1l252.7 252.7c22.2 22.2 22.2 58.2 0 80.5-22.2 22.2-58.2 22.2-80.5 0l-155.7-155.4v469.5c0 31.3-25.5 56.8-56.9 56.8s-56.9-25.5-56.9-56.9v-469.5l-155.7 155.8c-22.2 22.2-58.2 22.2-80.5 0-22.2-22.2-22.2-58.2 0-80.5l252.9-252.8z" />
<glyph unicode="&#xe904;" glyph-name="menu" horiz-adv-x="1536" d="M1454.939 533.348h-1373.882c-44.773 0-81.068-36.295-81.068-81.067v-8.534c0-44.774 36.295-81.066 81.068-81.066h1373.882c44.774 0 81.071 36.292 81.071 81.066v8.534c0 44.773-36.298 81.067-81.071 81.067zM1454.939 106.672h-1373.882c-44.773 0-81.068-36.298-81.068-81.066v-8.537c0-44.774 36.295-81.066 81.068-81.066h1373.882c44.774 0 81.071 36.292 81.071 81.066v8.537c0 44.768-36.298 81.066-81.071 81.066zM1454.939 959.997h-1373.882c-44.773 0-81.068-36.295-81.068-81.068v-8.534c0-44.773 36.295-81.068 81.068-81.068h1373.882c44.774 0 81.071 36.295 81.071 81.068v8.534c0 44.773-36.298 81.068-81.071 81.068z" />
<glyph unicode="&#xe905;" glyph-name="robot" horiz-adv-x="991" d="M941.321 500.714v147.391c0 26.279-10.438 51.482-29.020 70.065-18.585 18.583-43.786 29.022-70.068 29.022h-297.258v65.001c15.11 13.575 24.772 33.095 24.772 54.993 0 19.71-7.829 38.612-21.766 52.549s-32.838 21.767-52.55 21.767c-19.708 0-38.612-7.829-52.55-21.767s-21.766-32.839-21.766-52.549c0-21.898 9.662-41.419 24.772-54.993v-65.001h-297.259c-26.279 0-51.482-10.439-70.065-29.022s-29.022-43.786-29.022-70.065v-148.53l-3.567-0.248c-12.49-0.892-24.18-6.481-32.711-15.648s-13.272-21.224-13.266-33.747v-99.088c0-13.14 5.22-25.743 14.511-35.032 9.291-9.292 21.893-14.512 35.032-14.512v-247.718c0-26.278 10.439-51.479 29.022-70.064 18.583-18.582 43.786-29.020 70.065-29.020h693.605c26.281 0 51.483 10.438 70.068 29.020 18.582 18.585 29.020 43.786 29.020 70.064v247.718c13.14 0 25.743 5.219 35.032 14.512 9.292 9.289 14.512 21.891 14.512 35.032v96.016c0.575 7.69-0.647 15.407-3.567 22.542-10.005 24.177-31.458 29.974-45.976 31.312zM247.715 449.932c0 54.694 33.293 99.088 74.315 99.088s74.314-44.394 74.314-99.088c0-54.697-33.291-99.088-74.314-99.088s-74.315 44.391-74.315 99.088zM693.507 152.67c-49.593 0.149-396.199 0-396.249 0v99.088c0 0 346.854 0.099 396.447 0l-0.198-99.088zM668.835 350.844c-41.021 0-74.316 44.391-74.316 99.088 0 54.694 33.294 99.088 74.316 99.088s74.316-44.394 74.316-99.088c0-54.697-33.294-99.088-74.316-99.088z" />
<glyph unicode="&#xe906;" glyph-name="eye" horiz-adv-x="1536" d="M767.999 256.002c106.037 0 192 85.959 192 192 0 106.038-85.963 191.998-192 191.998s-192-85.961-192-191.998c0-106.041 85.963-192 192-192zM1509.119 532.479c-90.878 129.28-344.319 427.521-741.12 427.521-396.8 0-650.241-298.24-741.12-427.521-35.84-51.198-35.84-119.042 0-168.961 90.879-129.278 344.32-427.518 741.12-427.518s650.242 298.239 741.12 427.518c35.842 49.92 35.842 119.040 0 168.961zM767.999 128.001c-84.871 0-166.261 33.714-226.275 93.722-60.009 60.014-93.727 141.409-93.727 226.275 0 84.871 33.718 166.265 93.727 226.276 60.014 60.012 141.404 93.726 226.275 93.726s166.261-33.715 226.275-93.726c60.009-60.012 93.727-141.405 93.727-226.276 0-84.866-33.718-166.261-93.727-226.275-60.014-60.009-141.404-93.722-226.275-93.722z" />
<glyph unicode="&#xe907;" glyph-name="ask" horiz-adv-x="1084" d="M536.785 240.342c-19.712 0-35.774-16.062-35.774-35.774s16.062-35.774 35.774-35.774 35.774 16.062 35.774 35.774c0 19.712-16.062 35.774-35.774 35.774zM1013.637 647.314c-25.866 60.91-62.892 115.667-110.035 162.705-47.039 47.039-101.899 83.96-162.81 109.722-63.1 26.7-129.956 40.259-198.792 40.259-69.15 0-136.213-13.559-199.314-40.259-61.014-25.762-115.771-62.683-162.705-109.722-47.039-47.039-83.96-101.795-109.722-162.705-26.7-63.1-40.259-130.164-40.259-199.314s13.559-136.213 40.259-199.314c25.762-61.014 62.683-115.771 109.722-162.705 47.039-47.039 101.795-83.96 162.705-109.722 63.1-26.7 130.164-40.259 199.314-40.259s136.213 13.559 199.314 40.259c61.014 25.762 115.771 62.683 162.705 109.722 47.039 47.039 83.96 101.795 109.722 162.705 26.7 63.1 40.259 130.164 40.259 199.314 0 69.045-13.559 136.109-40.363 199.314zM986.415 448c0-245.101-199.418-444.415-444.415-444.415-245.101 0-444.415 199.314-444.415 444.415s199.418 444.415 444.415 444.415c245.101 0 444.415-199.314 444.415-444.415zM541.896 700.715c-37.547 0-72.592-14.497-98.875-40.781s-40.781-61.432-40.781-98.875c0-18.252 14.81-33.063 33.063-33.063s33.063 14.81 33.063 33.063c0 39.842 32.437 72.174 72.174 72.174 39.842 0 72.174-32.437 72.174-72.174 0-32.645-25.449-55.174-46.726-68.211-47.664-29.099-62.683-71.444-61.014-99.083v-58.929c0-17.939 15.749-33.063 34.418-33.063 18.252 0 33.063 14.81 33.063 33.063v63.518c-0.104 3.546 1.043 22.111 29.621 39.008 25.344 15.019 45.265 33.584 58.929 55.174 13.767 21.59 20.755 45.161 20.755 69.984 0 37.443-14.497 72.383-40.885 98.249-26.283 25.762-61.432 39.946-98.979 39.946z" />
<glyph unicode="&#xe908;" glyph-name="down-long" horiz-adv-x="939" d="M887.698 420.976c-26.085 26.085-68.343 26.085-94.428 0l-256.991-256.887v729.133c0 36.832-29.946 66.778-66.778 66.778s-66.778-29.946-66.778-66.778v-729.133l-256.991 256.887c-26.085 26.085-68.343 26.085-94.428 0s-26.085-68.343 0-94.428l371.036-371.036c3.861-3.861 8.034-7.095 12.521-9.808 0 0 0.104-0.104 0.104-0.104 0.835-0.522 1.669-0.939 2.504-1.461 0.104-0.104 0.209-0.104 0.313-0.209 0.73-0.417 1.565-0.835 2.4-1.252 0.209-0.104 0.417-0.209 0.626-0.313 0.73-0.313 1.461-0.626 2.191-0.939 0.313-0.104 0.626-0.209 0.835-0.417 0.626-0.313 1.252-0.522 1.982-0.73 0.417-0.104 0.73-0.313 1.148-0.417 0.626-0.209 1.148-0.417 1.774-0.626 0.522-0.104 0.939-0.313 1.461-0.417s1.043-0.313 1.565-0.417c0.522-0.104 1.043-0.313 1.669-0.417 0.522-0.104 0.939-0.209 1.461-0.313 0.626-0.104 1.148-0.313 1.774-0.417 0.522-0.104 0.939-0.209 1.461-0.209 0.626-0.104 1.148-0.209 1.774-0.313 0.522-0.104 1.043-0.104 1.565-0.209s1.148-0.104 1.669-0.209c0.626-0.104 1.356-0.104 1.982-0.104 0.417 0 0.835-0.104 1.252-0.104 1.148-0.104 2.191-0.104 3.339-0.104 0 0 0 0 0 0s0 0 0 0c0.104 0 0.209 0 0.209 0 1.043 0 1.982 0 3.026 0.104 0.626 0 1.252 0.104 1.878 0.104 0.417 0 0.939 0.104 1.356 0.104 0.73 0.104 1.461 0.209 2.191 0.313 0.313 0 0.626 0.104 0.939 0.104 0.835 0.104 1.565 0.209 2.4 0.417 0.209 0 0.522 0.104 0.73 0.104 0.835 0.209 1.669 0.313 2.504 0.522 0.209 0.104 0.417 0.104 0.73 0.209 0.835 0.209 1.565 0.417 2.4 0.626 0.209 0.104 0.522 0.104 0.73 0.209 0.73 0.209 1.565 0.522 2.295 0.73 0.313 0.104 0.522 0.209 0.835 0.313 0.73 0.209 1.461 0.522 2.087 0.835 0.313 0.104 0.626 0.209 0.939 0.417 0.626 0.313 1.252 0.522 1.982 0.835 0.313 0.209 0.73 0.313 1.043 0.522 0.626 0.313 1.148 0.626 1.774 0.835 0.417 0.209 0.73 0.417 1.148 0.626 0.522 0.313 1.148 0.626 1.669 0.939 0.417 0.209 0.835 0.417 1.148 0.626 0.522 0.313 1.148 0.73 1.669 1.043 0.313 0.209 0.73 0.417 1.043 0.73 0.626 0.417 1.252 0.835 1.774 1.252 0.313 0.209 0.522 0.417 0.835 0.626 0.73 0.522 1.461 1.148 2.191 1.669 0.104 0.104 0.209 0.209 0.417 0.313 1.878 1.565 3.652 3.13 5.321 4.904l370.723 370.723c26.085 25.877 26.085 68.239 0 94.22z" />
<glyph unicode="&#xe909;" glyph-name="clock" d="M512 960c-282.453 0-512-229.547-512-512s229.547-512 512-512c282.453 0 512 229.547 512 512s-229.547 512-512 512zM682.667 362.667h-213.333c-23.893 0-42.667 18.773-42.667 42.667v298.667c0 23.893 18.773 42.667 42.667 42.667s42.667-18.773 42.667-42.667v-256h170.667c23.893 0 42.667-18.773 42.667-42.667s-18.773-42.667-42.667-42.667z" />
<glyph unicode="&#xe90a;" glyph-name="dollar" d="M512 960c-282.75 0-512-229.25-512-512s229.25-512 512-512c282.812 0 512 229.25 512 512s-229.188 512-512 512zM651.622 250.313c-25.187-28.252-61.559-44.879-109.121-49.879v-72.434h-60.628v72.062c-79.312 8.124-128.375 54.248-147.312 138.25l93.75 24.436c8.687-52.811 37.437-79.186 86.252-79.186 22.811 0 39.687 5.622 50.435 16.937 10.752 11.315 16.125 24.938 16.125 40.94 0 16.561-5.376 29.126-16.125 37.625-10.749 8.561-34.686 19.374-71.748 32.498-33.314 11.561-59.375 22.941-78.128 34.311-18.749 11.25-34 27.061-45.687 47.377-11.687 20.374-17.562 44.124-17.562 71.127 0 35.437 10.499 67.374 31.375 95.748 20.876 28.312 53.75 45.626 98.628 51.938v55.936h60.624v-55.938c67.751-8.126 111.626-46.438 131.564-114.998l-83.5-34.253c-16.312 47.002-41.441 70.501-75.564 70.501-17.125 0-30.874-5.25-41.185-15.751-10.377-10.499-15.561-23.248-15.561-38.188 0-15.247 4.997-26.938 14.998-35.123 9.94-8.127 31.375-18.19 64.126-30.252 36-13.124 64.249-25.562 84.688-37.25 20.5-11.687 36.813-27.877 49.063-48.439 12.186-20.623 18.309-44.687 18.309-72.25 0-42.308-12.626-77.558-37.816-105.745z" />
<glyph unicode="&#xe90b;" glyph-name="right" horiz-adv-x="1434" d="M1389.674 408.441c0.922 0.922 1.843 1.843 1.843 1.843 0.916 0.922 0.916 0.922 1.838 1.848 0.916 0.922 0.916 1.843 1.838 2.765s0.922 0.922 1.843 1.848c0.916 0.922 0.916 1.843 1.838 2.765 0 0.922 0.922 0.922 0.922 1.848 0.916 0.922 0.916 1.843 1.838 3.686 0 0.922 0.916 0.922 0.916 1.848 0.922 0.922 0.922 2.765 1.843 3.686v0.922c0.916 1.843 0.916 2.765 0.916 4.613v0.922c0 1.843 0.922 2.765 0.922 4.613v0.922c0 1.843 0 3.686 0 5.533s0 3.688 0 5.534v0.922c0 1.846 0 2.767-0.922 4.613v0.921c0 1.846-0.916 2.767-0.916 4.613v0.921c-0.916 0.921-0.916 2.767-1.843 3.688 0 0.921-0.916 0.921-0.916 1.846-0.916 0.921-0.916 2.767-1.838 3.688 0 0.922-0.922 0.922-0.922 1.846-0.916 0.922-0.916 1.846-1.838 2.767 0 0.921-0.922 0.921-1.843 1.846-0.916 0.921-0.916 1.846-1.838 2.767-0.916 0.921-0.916 0.921-1.838 1.846-0.922 0.921-1.843 1.846-1.843 1.846l-0.916 0.921-511.294 457.477c-10.117 9.222-23.91 13.835-36.782 13.835-15.631 0-30.346-6.455-41.38-18.448-20.229-23.057-18.391-58.107 4.598-78.397l403.698-358.792h-1124.655c-30.346 0-55.175-24.903-55.175-55.34s24.829-55.342 55.175-55.342h1124.655l-402.776-360.633c-22.989-20.291-24.832-55.342-4.603-78.397s55.178-24.904 78.167-4.613l510.373 457.478c0 0.927 0.916 0.927 0.916 0.927z" />
<glyph unicode="&#xe90c;" glyph-name="tg" d="M940.873 869.156l-907.218-351.654c-36.508-16.376-48.856-49.172-8.825-66.97l232.742-74.342 562.735 349.578c30.724 21.947 62.182 16.094 35.115-8.048l-483.315-439.872-15.183-186.151c14.063-28.741 39.81-28.877 56.236-14.59l133.714 127.177 229.011-172.372c53.191-31.653 82.129-11.227 93.573 46.789l150.213 714.939c15.594 71.413-11.002 102.876-78.799 75.516z" />
<glyph unicode="&#xe90d;" glyph-name="user-list" horiz-adv-x="1221" d="M388.464 448.002c135.307 0 244.913 109.606 244.913 244.913s-109.606 244.913-244.913 244.913c-135.307 0-244.913-109.606-244.913-244.913s109.606-244.913 244.913-244.913v0zM727.482-41.824h-677.936c-7.1-0.1-14.001 1.4-20.501 4.3-6.4 2.9-12.201 7.1-16.801 12.401s-8.1 11.501-10.201 18.201-2.5 13.901-1.6 20.901c13.401 93.405 60.003 178.91 131.207 240.713s162.409 95.905 256.814 95.905c94.305 0 185.51-34.002 256.814-95.905 71.304-61.803 117.806-147.308 131.107-240.713 1-7 0.5-14.101-1.6-20.901s-5.5-13.001-10.101-18.301-10.401-9.501-16.801-12.401c-6.4-2.9-13.401-4.3-20.401-4.2v0zM1181.606 106.384h-143.208c-21.801 0-39.402 17.601-39.402 39.402s17.601 39.402 39.402 39.402h143.208c21.801 0 39.402-17.601 39.402-39.402s-17.601-39.402-39.402-39.402zM1181.606 410.7h-286.415c-21.801 0-39.402 17.601-39.402 39.402s17.601 39.402 39.402 39.402h286.415c21.801 0 39.402-17.601 39.402-39.402s-17.601-39.402-39.402-39.402zM1181.606 715.016h-286.415c-21.801 0-39.402 17.601-39.402 39.402s17.601 39.402 39.402 39.402h286.415c21.801 0 39.402-17.601 39.402-39.402s-17.601-39.402-39.402-39.402z" />
<glyph unicode="&#xe90e;" glyph-name="bag" horiz-adv-x="859" d="M58.105 661.954l-58.006-706.295c-0.101-0.607-0.101-1.316-0.101-1.923 0-8.706 6.985-15.691 15.691-15.691h827.57c0.405 0 0.911 0 1.316 0.101 8.605 0.709 15.084 8.301 14.375 16.906l-58.006 706.396c-0.304 8.301-7.187 14.982-15.691 14.982h-83.010c-4.657 55.374-19.335 104.775-43.833 147.292-27.231 47.174-66.408 84.326-113.177 107.306-35.735 17.614-75.721 26.928-115.809 26.928s-80.074-9.313-115.809-26.826c-46.769-22.98-85.946-60.132-113.177-107.407-24.498-42.416-39.177-91.817-43.833-147.292h-82.808c-8.099 0.101-15.084-6.175-15.691-14.476zM347.83 883.752c25.409 12.553 53.653 19.133 81.694 19.133s56.285-6.58 81.694-19.133c71.267-35.026 115.607-109.533 124.92-207.323h-413.228c9.313 97.79 53.653 172.297 124.92 207.323zM186.062 511.725c-23.688 0-42.922 19.234-42.922 42.922s19.234 42.922 42.922 42.922c23.688 0 42.922-19.234 42.922-42.922 0.101-23.688-19.133-42.922-42.922-42.922zM672.784 511.725c-23.688 0-42.922 19.234-42.922 42.922s19.234 42.922 42.922 42.922 42.922-19.234 42.922-42.922c0.101-23.688-19.133-42.922-42.922-42.922z" />
<glyph unicode="&#xe90f;" glyph-name="cancel" d="M69.674 948.046c-15.939 15.939-41.782 15.939-57.72 0s-15.939-41.782 0-57.72l442.327-442.326-442.327-442.327c-15.939-15.938-15.939-41.782 0-57.72s41.782-15.938 57.72 0l442.326 442.327 442.327-442.327c15.938-15.938 41.782-15.938 57.72 0s15.938 41.782 0 57.72l-442.327 442.327 442.327 442.326c15.938 15.939 15.938 41.782 0 57.72s-41.782 15.939-57.72 0l-442.327-442.327-442.326 442.327z" />
<glyph unicode="&#xe910;" glyph-name="turn" d="M372.363 959.999h-279.273c-24.689 0-48.367-9.808-65.825-27.266s-27.266-41.136-27.266-65.825v-605.090c0-24.689 9.808-48.367 27.266-65.825s41.136-27.266 65.825-27.266h279.273c24.689 0 48.367 9.807 65.825 27.266s27.266 41.135 27.266 65.825v605.090c0 24.689-9.807 48.367-27.266 65.825s-41.135 27.266-65.825 27.266zM372.363 308.364h-279.273v558.544h279.273v-558.544zM930.908 401.455h-372.364v-93.091h372.364v-279.273h-558.544v46.545h-139.636v-46.545c0-24.689 9.807-48.367 27.266-65.825s41.135-27.266 65.825-27.266h605.090c24.689 0 48.367 9.807 65.825 27.266s27.266 41.135 27.266 65.825v279.273c0 24.689-9.807 48.367-27.266 65.825s-41.135 27.266-65.825 27.266zM1023.998 541.091l-186.182 93.091 88.902 42.356c-54.458 129.396-181.993 213.644-321.629 213.644v69.818c111.101 0 217.653-44.135 296.214-122.696s122.695-185.113 122.695-296.213z" />
<glyph unicode="&#xe911;" glyph-name="save" horiz-adv-x="843" d="M816.552 685.207l-157.848 157.843c-16.938 16.938-39.91 26.455-63.864 26.455h-504.522c-49.884 0-90.322-40.438-90.322-90.322v-662.364c0-49.882 40.438-90.322 90.322-90.322h662.364c49.882 0 90.322 40.44 90.322 90.322v504.522c0 23.955-9.514 46.928-26.452 63.867zM421.5 146.926c-66.51 0-120.43 53.917-120.43 120.43s53.919 120.43 120.43 120.43c66.51 0 120.43-53.917 120.43-120.43s-53.919-120.43-120.43-120.43zM602.145 719.946v-189.15c0-12.47-10.111-22.58-22.58-22.58h-436.558c-12.47 0-22.58 10.111-22.58 22.58v195.699c0 12.47 10.111 22.58 22.58 22.58h430.009c5.99 0 11.732-2.378 15.967-6.614l6.549-6.549c2.096-2.096 3.761-4.586 4.895-7.326s1.718-5.676 1.718-8.641z" />
<glyph unicode="&#xe912;" glyph-name="double-left" d="M990.677-63.962c-8.519 0-17.038 3.221-23.479 9.766l-478.729 478.729c-12.986 12.986-12.986 34.076 0 47.063l478.729 478.625c12.986 12.986 34.076 12.986 47.063 0s12.986-34.076 0-47.063l-455.25-455.146 455.25-455.25c12.986-12.986 12.986-34.076 0-47.063-6.545-6.441-15.064-9.662-23.583-9.662zM511.948-63.962c-8.519 0-17.038 3.221-23.479 9.766l-478.729 478.729c-12.986 12.986-12.986 34.076 0 47.063l478.729 478.625c12.986 12.986 34.076 12.986 47.063 0s12.986-34.076 0-47.063l-455.25-455.146 455.25-455.25c12.986-12.986 12.986-34.076 0-47.063-6.545-6.441-15.064-9.662-23.583-9.662z" />
<glyph unicode="&#xe913;" glyph-name="double-right" d="M33.231-64.001c-8.519 0-17.038 3.221-23.479 9.765-12.986 12.986-12.986 34.075 0 47.061l455.134 455.134-455.134 455.238c-12.986 12.986-12.986 34.075 0 47.061s34.075 12.986 47.061 0l478.717-478.717c12.986-12.986 12.986-34.075 0-47.061l-478.821-478.717c-6.441-6.545-14.96-9.765-23.479-9.765zM511.948-64.001c-8.519 0-17.038 3.221-23.479 9.765-12.986 12.986-12.986 34.075 0 47.061l455.134 455.134-455.134 455.238c-12.986 12.986-12.986 34.075 0 47.061s34.075 12.986 47.061 0l478.717-478.717c12.986-12.986 12.986-34.075 0-47.061l-478.821-478.717c-6.441-6.545-14.96-9.765-23.479-9.765z" />
<glyph unicode="&#xe914;" glyph-name="up" horiz-adv-x="1843" d="M50.584 252.981l733.553 602.955c40.978 29.677 88.306 44.28 135.631 44.28 47.327 0 94.537-14.72 130.609-44.162l733.555-602.956c57.977-42.984 73.793-107.991 45.201-164.047-28.592-56.054-95.99-93.269-170.616-93.269h-1472.302c-74.682 0-142.093 36.654-170.72 93.035s-18.007 121.296 35.091 164.164z" />
<glyph unicode="&#xe915;" glyph-name="down" horiz-adv-x="1843" d="M1792.417 643.019l-733.552-602.957c-40.978-29.677-88.306-44.28-135.631-44.28-47.327 0-94.537 14.721-130.609 44.163l-733.554 602.957c-57.978 42.984-73.794 107.991-45.202 164.047 28.592 56.055 95.991 93.269 170.616 93.269h1472.304c74.681 0 142.092-36.653 170.718-93.035s18.007-121.296-35.091-164.164z" />
<glyph unicode="&#xe916;" glyph-name="check" d="M996.654 875.231l-66.311 62.83c-32.688 30.927-51.69 30.568-79.675-10.124l-481.99-700.207-224.305 219.38c-30.945 30.601-50.303 28.973-75.745-8.464l-51.188-78.455c-25.967-38.48-22.649-60.323 8.047-90.501l319.685-311.286c32.909-32.549 51.438-29.199 76.88 7.234l582.926 815.839c27.377 38.739 25.717 61.885-8.324 93.756z" />
<glyph unicode="&#xe917;" glyph-name="refund" horiz-adv-x="1152" d="M569.13-61.325c-90.020 8.544-183.548 44.858-259.424 100.793l-36.494 26.899 32.858 37.427c18.072 20.582 33.818 37.427 34.99 37.427 1.17 0 19.745-12.109 41.274-26.918 77.587-53.357 141.804-73.439 236.015-73.842 75.999 0 117.945 9.459 188.191 43.859 40.070 19.629 58.95 33.875 101.599 76.697 42.477 42.637 56.934 61.907 76.389 101.804 33.286 68.27 43.635 112.215 43.635 185.288 0 72.581-10.227 116.311-43.315 185.18-19.488 40.556-32.762 58.212-76.338 101.515-57.274 56.903-102.681 84.796-173.138 106.37-216.715 66.333-451.465-65.776-513.288-288.875-18.109-65.35-18.872-63.652 28.575-63.652 22.293 0 40.532-1.764 40.532-3.806 0-4.27-135.045-239.65-136.416-237.73-6.182 8.634-135.732 236.264-135.732 238.482 0 1.671 19.276 3.064 42.834 3.064h42.833l6.609 39.089c35.085 207.513 184.313 369.43 386.582 419.454 64.423 15.929 175.269 17.182 235.262 2.692 297.342-72.032 468.527-375.51 373.495-662.123-39.994-120.607-126.661-224.254-242.34-289.828-43.571-24.691-127.961-52.051-173.586-56.256-20.704-1.946-46.758-4.269-57.908-5.293-11.146-1.018-39.809 0.019-63.695 2.285zM569.13 178.41c0 31.098-0.186 31.469-21.501 38.496-33.505 11.053-79.945 61.216-90.933 98.22-15.951 53.717-17.725 51.916 51.32 51.916 60.276 0 60.509-0.047 68.093-15.92 11.14-23.309 45.421-30.957 66.956-14.954 10.086 7.519 16.467 18.25 17.606 29.677 2.086 20.867-6.221 26.4-71.275 47.537-22.292 7.24-49.652 17.795-60.799 23.457-27.039 13.729-61.037 49.681-72.097 76.229-11.19 26.864-11.564 73.963-0.835 99.751 11.764 28.154 49.711 63.735 80.529 75.504l26.563 10.147 1.717 32.61 1.718 32.61 101.334 3.342v-69.397l24.608-10.935c13.536-6.034 33.126-18.138 43.539-26.938 24.627-20.812 51.2-65.665 43.475-73.397-3.155-3.156-29.6-13.153-58.778-22.213-49.76-15.475-53.376-15.864-58.509-6.22-12.474 23.299-69.743 29.695-86.382 9.645-10.271-12.374 9.472-25.203 67.969-44.167 82.162-26.632 124.121-59.688 139.065-109.554 21.869-73.008-9.504-147.957-78.162-186.702l-31.040-17.517v-62.592h-104.225l0.044 31.366z" />
<glyph unicode="&#xe918;" glyph-name="pause" horiz-adv-x="768" d="M274.284 960h-182.857c-20.198 0-36.572-16.374-36.572-36.571v-950.859c0-20.198 16.373-36.57 36.572-36.57h182.857c20.198 0 36.572 16.371 36.572 36.57v950.859c0 20.198-16.374 36.571-36.572 36.571zM676.576 960h-182.856c-20.198 0-36.572-16.374-36.572-36.571v-950.859c0-20.198 16.374-36.57 36.572-36.57h182.856c20.198 0 36.57 16.371 36.57 36.57v950.859c0 20.198-16.371 36.571-36.57 36.571z" />
<glyph unicode="&#xe919;" glyph-name="down2" horiz-adv-x="1317" d="M1280.849 614.002l-524.192-513.24c-29.283-25.262-63.1-37.691-96.92-37.691-33.818 0-67.555 12.53-93.332 37.591l-524.192 513.24c-41.43 36.588-52.732 91.921-32.301 139.636s68.595 79.392 121.922 79.392h1052.097c53.367 0 101.538-31.199 121.994-79.191s12.868-103.25-25.076-139.738z" />
<glyph unicode="&#xe91a;" glyph-name="edit" d="M986.552 650.962l-45.253-45.279-271.569 271.529 45.258 45.282c49.996 50 131.064 50 181.059 0l90.505-90.529c49.931-49.972 49.931-131.009 0-181.004zM352.925 107.933c-12.498-12.492-12.498-32.736 0-45.237 12.504-12.563 32.755-12.563 45.253 0l497.87 497.735-45.308 45.283-497.815-497.781zM126.621 334.187c-12.504-12.508-12.504-32.74 0-45.246 12.499-12.5 32.75-12.5 45.253 0l497.857 497.773-45.238 45.253-497.872-497.778zM714.93 741.494l-497.811-497.802c-24.998-24.947-24.934-65.513 0-90.506 25.008-25.002 65.502-25.119 90.565 0.064l497.812 497.712-90.566 90.532zM307.554 17.563c-15.306 15.32-22.684 34.744-25.429 54.76-6.507-1.008-13.060-1.937-19.754-1.937-34.193 0-66.306 13.359-90.496 37.549-24.188 24.253-37.501 56.319-37.501 90.512 0 6.231 0.935 12.311 1.814 18.369-20.689 2.812-39.811 11.878-54.811 26.876-1.439 1.429-1.934 3.369-3.245 4.934l-78.131-312.619 311.806 78.060c-1.374 1.245-2.928 2.182-4.251 3.498z" />
<glyph unicode="&#xe91b;" glyph-name="delete" horiz-adv-x="878" d="M278.669 641.463h64.133v-513.063h-64.133v513.063zM406.975 641.474h64.133v-513.067h-64.133v513.067zM535.205 641.463h64.133v-513.063h-64.133v513.063zM22.133 833.876h833.734v-64.132h-833.734v64.132zM597.194 801.805h-59.858v64.133c0 19.239-14.965 34.204-34.205 34.204h-128.266c-19.24 0-34.205-14.965-34.205-34.204v-64.133h-59.857v64.133c0 51.306 42.755 94.061 94.062 94.061h128.266c51.306 0 94.062-42.756 94.062-94.061v-64.133zM631.418-64h-384.799c-51.306 0-96.2 42.756-100.476 94.065l-59.857 769.593 64.132 4.275 59.858-769.6c2.138-19.235 19.24-34.202 36.343-34.202h384.799c19.239 0 36.342 17.1 36.342 34.202l59.858 769.6 64.131-4.275-59.856-769.593c-4.275-53.444-49.169-94.065-100.475-94.065z" />
<glyph unicode="&#xe91c;" glyph-name="play" horiz-adv-x="878" d="M854.311 489.012l-783.262 452.215c-4.725 2.718-9.613 4.258-14.52 5.253l757.226-437.189c31.578-18.231 31.578-63.817 0-82.048l-783.264-452.219c-7.077-4.075-14.52-5.835-21.861-6.104 13.303-19.018 39.766-27.227 62.418-14.175l783.262 452.219c31.578 18.231 31.578 63.816 0 82.047zM71.054 941.238l783.265-452.215c31.578-18.231 31.578-63.817 0-82.048l-783.265-452.213c-31.574-18.233-71.056 4.558-71.056 41.018v904.435c0 36.461 39.462 59.254 71.056 41.024z" />
<glyph unicode="&#xe91d;" glyph-name="search" d="M436.017 944c-112.191 0-217.664-43.689-296.993-123.020-79.331-79.329-123.020-184.803-123.020-296.991 0-112.191 43.689-217.666 123.020-296.994 79.329-79.328 184.804-123.021 296.993-123.021 98.723 0 192.244 33.83 267.328 96.006l236.243-236.243c7.827-7.827 18.086-11.738 28.339-11.738s20.512 3.91 28.333 11.738c15.648 15.648 15.648 41.024 0 56.672l-236.243 236.243c62.182 75.084 96.013 168.609 96.013 267.336 0 112.189-43.693 217.662-123.021 296.991-79.328 79.331-184.801 123.020-296.992 123.020zM677.93 285.491c-0.602-0.531-1.19-1.088-1.766-1.658-0.57-0.576-1.126-1.165-1.658-1.76-61.397-60.538-145.657-97.952-238.492-97.952-187.404 0-339.868 152.463-339.868 339.868s152.466 339.868 339.87 339.868c187.405 0 339.866-152.464 339.866-339.868 0-92.836-37.414-177.097-97.952-238.498zM733.009 820.98v0zM856.030 523.989v0zM760.017 256.653l-12.32 10.202-9.293-11.219 10.298-10.298 11.315 11.315zM996.26 20.41v0zM996.26-36.262v0zM939.588-36.262v0zM703.345 199.981l11.315 11.315-10.298 10.298-11.219-9.286 10.202-12.326zM139.024 226.995v0zM139.024 820.98v0zM677.93 285.491l10.618-11.968 0.397 0.358 0.378 0.378-11.392 11.232zM676.164 283.834v0zM674.506 282.074l11.238-11.392 0.378 0.371 0.352 0.397-11.968 10.624zM744.324 832.294c-82.33 82.331-191.873 127.706-308.307 127.706v-32c107.948 0 209.35-42.003 285.683-118.333l22.624 22.628zM872.030 523.989c0 116.432-45.376 225.976-127.706 308.305l-22.624-22.628c76.326-76.328 118.33-177.732 118.33-285.678l32 0.001zM772.343 246.445c64.557 77.964 99.686 175.101 99.686 277.544h-32c0-95.011-32.538-184.925-92.333-257.135l24.646-20.41zM1007.575 31.718l-236.243 236.25-22.63-22.63 236.25-236.243 22.624 22.624zM1007.575-47.578c21.894 21.901 21.894 57.402 0 79.296l-22.624-22.624c9.395-9.402 9.395-24.64 0-34.042l22.624-22.63zM967.927-64c14.323 0 28.704 5.478 39.648 16.422l-22.63 22.63c-4.698-4.704-10.829-7.053-17.018-7.053v-32zM928.273-47.578c10.95-10.944 25.331-16.422 39.654-16.422v32c-6.189 0-12.32 2.349-17.024 7.053l-22.63-22.63zM692.030 188.672l236.25-236.25 22.624 22.63-236.243 236.243-22.63-22.624zM436.017 87.974c102.438 0 199.572 35.13 277.536 99.686l-20.41 24.646c-72.209-59.795-162.12-92.333-257.126-92.333v-32zM127.71 215.68c82.33-82.33 191.875-127.706 308.307-127.706v32c-107.945 0-209.351 42.003-285.679 118.336l-22.628-22.63zM0.004 523.989c0-116.435 45.374-225.98 127.706-308.309l22.627 22.63c-76.33 76.326-118.333 177.731-118.333 285.679h-32zM127.71 832.294c-82.332-82.33-127.706-191.873-127.706-308.305h32c0 107.945 42.003 209.349 118.333 285.677l-22.627 22.628zM436.017 960c-116.434 0-225.978-45.374-308.307-127.706l22.628-22.627c76.328 76.33 177.732 118.333 285.679 118.333v32zM667.306 297.459c-0.838-0.742-1.658-1.517-2.451-2.31l22.624-22.63c0.352 0.352 0.71 0.685 1.069 1.005l-21.242 23.936zM664.855 295.142c-0.8-0.794-1.568-1.613-2.31-2.445l23.93-21.248c0.32 0.365 0.659 0.723 1.005 1.069l-22.624 22.624zM663.274 293.466c-58.537-57.715-138.812-93.344-227.26-93.344v-32c97.22 0 185.466 39.194 249.73 102.56l-22.47 22.784zM436.015 200.122c-178.568 0-323.868 145.299-323.868 323.868h-32c0-196.241 159.628-355.868 355.868-355.868v32zM112.147 523.989c0 178.568 145.302 323.868 323.87 323.868v32c-196.241 0-355.87-159.627-355.87-355.868h32zM436.017 847.857c178.568 0 323.866-145.3 323.866-323.868h32c0 196.241-159.624 355.868-355.866 355.868v-32zM759.882 523.989c0-88.45-35.629-168.726-93.35-227.266l22.79-22.464c63.36 64.261 102.56 152.508 102.56 249.73h-32z" />
<glyph unicode="&#xe91e;" glyph-name="left" horiz-adv-x="1434" d="M44.324 487.558c-0.919-0.922-1.84-1.846-1.84-1.846-0.919-0.922-0.919-0.922-1.84-1.846-0.918-0.922-0.918-1.846-1.84-2.767-0.919-0.921-0.919-0.921-1.84-1.846-0.918-0.921-0.918-1.846-1.84-2.767 0-0.921-0.918-0.921-0.918-1.846-0.919-0.921-0.919-1.846-1.84-3.688 0-0.921-0.918-0.921-0.918-1.846-0.919-0.921-0.919-2.767-1.84-3.688v-0.922c-0.918-1.846-0.918-2.767-0.918-4.613v-0.921c0-1.846-0.919-2.767-0.919-4.613v-0.921c0-1.846 0-3.688 0-5.536 0-1.843 0-3.686 0-5.53v-0.922c0-1.848 0-2.77 0.919-4.613v-0.922c0-1.848 0.918-2.77 0.918-4.613v-0.922c0.919-0.922 0.919-2.77 1.84-3.686 0-0.922 0.918-0.922 0.918-1.848 0.919-0.922 0.919-2.765 1.84-3.686 0-0.922 0.918-0.922 0.918-1.848 0.919-0.922 0.919-1.843 1.84-2.765 0-0.922 0.919-0.922 1.84-1.848 0.918-0.922 0.918-1.843 1.84-2.765 0.919-0.922 0.919-0.922 1.84-1.848 0.918-0.922 1.84-1.843 1.84-1.843l0.919-0.922 511.29-457.477c10.117-9.221 23.91-13.834 36.782-13.834 15.636 0 30.346 6.456 41.385 18.447 20.229 23.055 18.391 58.107-4.603 78.397l-403.695 358.789h1124.654c30.346 0 55.173 24.904 55.173 55.342s-24.827 55.341-55.173 55.341h-1124.654l402.779 360.633c22.989 20.291 24.827 55.34 4.598 78.398s-55.173 24.903-78.162 4.613l-510.373-457.479c0-0.924-0.919-0.924-0.919-0.924z" />
<glyph unicode="&#xe91f;" glyph-name="copy" d="M768.003 763.224v189.135h-224.002c-53.021 0-96.001-42.339-96.001-94.567v-567.404c0-52.229 42.981-94.567 96.001-94.567h384.002c53.020 0 95.997 42.339 95.997 94.567v409.791h-190.199c-36.997 0-65.796 28.37-65.796 63.045zM832.001 952.359v-189.135h191.998l-191.998 189.135zM384 258.865v441.314h-288.001c-53.020 0-96-42.339-96-94.567v-567.404c0-52.229 42.98-94.567 96-94.567h384.001c53.020 0 96 42.339 96 94.567v94.567h-63.999c-70.6 0-128 56.544-128 126.090z" />
<glyph unicode="&#xe920;" glyph-name="list" d="M1024 448.004c0-43.481-35.286-78.769-78.766-78.769h-630.157c-43.481 0-78.769 35.288-78.769 78.769s35.288 78.769 78.769 78.769h630.157c43.481 0 78.766-35.288 78.766-78.769zM1024 841.847c0-43.481-35.286-78.77-78.766-78.77h-630.157c-43.481 0-78.769 35.289-78.769 78.77s35.288 78.769 78.769 78.769h630.157c43.481 0 78.766-35.288 78.766-78.769zM1024 54.15c0-43.481-35.286-78.765-78.766-78.765h-630.157c-43.481 0-78.769 35.285-78.769 78.765s35.288 78.77 78.769 78.77h630.157c43.481 0 78.766-35.289 78.766-78.77zM0 841.847c0-43.442 35.328-78.77 78.769-78.77s78.77 35.328 78.77 78.77-35.328 78.769-78.77 78.769c-43.441 0-78.769-35.328-78.769-78.769zM0 448.004c0-43.441 35.328-78.769 78.769-78.769s78.77 35.328 78.77 78.769-35.328 78.769-78.77 78.769c-43.441 0-78.769-35.328-78.769-78.769zM0 54.15c0-43.441 35.328-78.765 78.769-78.765s78.77 35.324 78.77 78.765-35.328 78.77-78.77 78.77c-43.441 0-78.769-35.328-78.769-78.77z" />
<glyph unicode="&#xe921;" glyph-name="close" d="M512 556.436l382.23 382.23c28.445 28.446 74.566 28.446 103.011 0l5.421-5.422c28.446-28.446 28.446-74.565 0-103.013l-382.229-382.23 382.229-382.233c28.446-28.446 28.446-74.566 0-103.012l-5.421-5.422c-28.441-28.445-74.561-28.445-103.008 0l-382.233 382.234-382.228-382.228c-28.445-28.445-74.566-28.445-103.012 0l-5.422 5.421c-28.446 28.446-28.446 74.566 0 103.012l382.227 382.228-382.224 382.225c-28.446 28.445-28.446 74.565 0 103.012l5.422 5.422c28.446 28.446 74.566 28.446 103.012 0l382.225-382.224z" />
<glyph unicode="&#xe922;" glyph-name="up2" horiz-adv-x="1317" d="M36.151 281.998l524.192 513.24c29.283 25.262 63.1 37.691 96.92 37.691 33.818 0 67.555-12.53 93.332-37.591l524.192-513.24c41.43-36.588 52.732-91.921 32.301-139.636s-68.595-79.392-121.922-79.392h-1052.097c-53.367 0-101.538 31.199-121.994 79.191s-12.868 103.25 25.076 139.738z" />
<glyph unicode="&#xe923;" glyph-name="attention" horiz-adv-x="1208" d="M648.874 828.853c-20.826 33.044-68.921 33.044-89.747 0l-444.296-704.907c-22.32-35.414 3.075-81.582 44.873-81.582h888.587c41.8 0 67.198 46.168 44.872 81.582l-444.289 704.907zM469.381 885.651c62.481 99.133 206.756 99.132 269.24-0.001l444.297-704.906c66.956-106.236-9.226-244.744-134.627-244.744h-888.587c-125.395 0-201.579 138.508-134.619 244.744l444.296 704.907zM657.074 201.91c0-29.372-23.761-53.181-53.073-53.181s-53.073 23.809-53.073 53.181c0 29.372 23.761 53.182 53.073 53.182s53.073-23.81 53.073-53.182zM534.692 565.441l38.409-230.938c2.516-15.136 15.588-26.229 30.9-26.229s28.383 11.093 30.9 26.229l38.409 230.938c5.392 32.415-19.552 61.925-52.352 61.925h-33.914c-32.8 0-57.744-29.51-52.352-61.925z" />
<glyph unicode="&#xe924;" glyph-name="user" horiz-adv-x="975" d="M487.5 935.503c-268.126 0-487.503-219.377-487.503-487.503s219.377-487.503 487.503-487.503c268.126 0 487.503 219.377 487.503 487.503s-219.377 487.503-487.503 487.503zM487.5 789.252c82.875 0 146.251-63.375 146.251-146.251s-63.375-146.251-146.251-146.251c-82.875 0-146.251 63.375-146.251 146.251s63.375 146.251 146.251 146.251zM487.5 96.997c-121.876 0-229.127 63.375-292.501 156.001 0 97.501 195.002 151.126 292.501 151.126s292.501-53.625 292.501-151.126c-63.375-92.626-170.626-156.001-292.501-156.001z" />
<glyph unicode="&#xe925;" glyph-name="bill" horiz-adv-x="805" d="M786.5 704h-256v256l256-256zM530.5 640h256v-608c0-53.021-42.979-96-96-96h-576c-53.020 0-96 43.001-96 96v832c0 53.020 42.98 96 96 96h352l0.007-256c-0.007-35.4 28.592-64 63.993-64zM146.5 784c0-8.76 7.26-16 16-16h160c8.8 0 16 7.24 16 16v32c0 8.74-7.2 16-16 16h-160c-8.74 0-16-7.26-16-16v-32zM162.5 640h160c8.8 0 16 7.2 16 16v32c0 8.8-7.2 16-16 16h-160c-8.74 0-16-7.2-16-16v-32c0-8.8 7.26-16 16-16zM413.5 326.4l-12.8 3.2c-45.601 14-44.601 22.199-43.001 29.4 2.75 15.623 33.181 19.438 60.54 15.25 11.187-1.686 23.461-5.625 35.178-9.688 20.78-7.19 43.663 3.877 50.9 24.678 7.252 20.882-3.781 43.681-24.66 50.94-14.435 4.97-26.218 8.155-37.12 10.547v13.272c0 22.060-17.905 39.998-39.998 39.998s-40-17.935-40-39.998v-11.984c-44.84-9.615-76.44-37.617-83.64-79.415-14.812-85.68 66.38-109.502 101.039-119.68l11.626-3.376c58.558-16.75 57.6-22.382 55.837-32.56-2.75-15.627-33.178-19.5-60.617-15.25-13.879 2.059-31.621 8.437-47.321 14.062l-8.938 3.248c-20.82 7.19-43.66-3.624-51.040-24.437-7.344-20.82 3.562-43.681 24.4-51.061l8.532-2.999c15.516-5.581 32.76-11.18 50.12-15.027v-13.52c0-22.060 17.906-39.998 39.999-39.998 22.096 0 40.002 17.935 40.002 39.998v12.507c44.72 9.585 76.42 37.061 83.661 78.859 14.899 86.634-68.1 110.435-112.699 123.034z" />
<glyph unicode="&#xe926;" glyph-name="close2" d="M145.674 935.006c-33.325 33.325-87.355 33.325-120.68 0s-33.325-87.355 0-120.68l366.328-366.328-366.328-366.328c-33.325-33.323-33.325-87.356 0-120.678s87.355-33.323 120.68 0l366.328 366.328 366.328-366.328c33.323-33.323 87.356-33.323 120.678 0s33.323 87.356 0 120.678l-366.328 366.328 366.328 366.328c33.323 33.325 33.323 87.355 0 120.68s-87.356 33.325-120.678 0l-366.328-366.328-366.328 366.328z" />
<glyph unicode="&#xe927;" glyph-name="check2" horiz-adv-x="1243" d="M1191.974 875.231l-78.057 62.829c-38.476 30.927-60.838 30.569-93.78-10.125l-567.34-700.208-264.026 219.382c-36.425 30.601-59.211 28.974-89.158-8.464l-60.253-78.455c-30.566-38.479-26.66-60.323 9.473-90.5l376.295-311.284c38.737-32.554 60.546-29.201 90.493 7.228l686.155 815.84c32.224 38.739 30.272 61.886-9.803 93.756z" />
<glyph unicode="&#xe928;" glyph-name="info" d="M568.89 785.27c-28.445-12.19-44.699-36.571-44.699-73.144 0-24.381 4.063-44.698 20.317-56.888s32.508-16.254 48.762-4.063c20.317 8.126 28.445 24.381 36.571 48.762 16.254 56.888-20.317 101.587-60.951 85.333zM520.13 606.476c-32.508-8.127-69.080-36.572-101.588-81.27-24.381-32.508-32.508-52.826-28.444-60.952 0-4.063 4.063-4.063 8.126-4.063s16.254 16.254 28.445 36.571c12.19 20.317 28.445 36.571 32.508 40.636 16.254 16.254 32.508 4.063 24.381-20.318 0-8.126-16.254-60.952-36.571-117.841-36.571-125.969-44.699-162.539-44.699-199.111 0-24.382 0-28.445 8.127-36.571 12.19-24.382 44.699-24.382 81.27-8.127 48.762 24.382 121.905 109.714 117.841 142.222 0 4.063-4.063 8.126-4.063 8.126-4.063 0-8.127-4.063-40.636-48.762-28.444-36.571-44.698-44.698-44.698-16.254 0 8.127 16.254 65.015 32.508 134.096 20.317 69.079 36.571 130.032 36.571 142.221 4.063 24.382 4.063 52.826-4.063 65.015-12.19 20.318-36.572 28.445-65.015 24.382zM0.001 448c0-280.381 231.619-512 512-512s511.999 227.556 511.999 512c0 284.444-231.619 512-511.999 512s-512-231.619-512-512zM60.953 448c0 247.872 203.175 451.048 451.048 451.048s451.048-203.174 451.048-451.048c0-247.872-203.175-451.048-451.048-451.048s-451.048 203.175-451.048 451.048z" />
<glyph unicode="&#xe929;" glyph-name="minimize" d="M430.080 391.681c-5.12 5.12-15.36 5.12-20.48 5.12h-307.199c-30.72 0-51.2-20.48-51.2-51.2s20.48-51.2 51.2-51.2h184.32l-271.36-271.36c-20.48-20.48-20.48-51.2 0-71.68 10.24-10.24 25.6-15.36 35.84-15.36s25.6 5.12 35.84 15.36l271.36 271.36v-184.32c0-30.72 20.48-51.2 51.2-51.2s51.2 20.48 51.2 51.2v307.199c0 5.12 0 15.36-5.12 20.48-5.12 10.24-15.36 20.48-25.6 25.6zM1008.64 944.64c-20.48 20.48-51.2 20.48-71.68 0l-271.36-271.36v184.32c0 30.72-20.48 51.2-51.2 51.2s-51.2-20.48-51.2-51.2v-307.199c0-5.12 0-15.36 5.12-20.48 5.12-10.24 15.36-20.48 25.6-25.6 5.12-5.12 15.36-5.12 20.48-5.12h307.199c30.72 0 51.2 20.48 51.2 51.2s-20.48 51.2-51.2 51.2h-184.32l271.36 271.36c20.48 20.48 20.48 51.2 0 71.68z" />
<glyph unicode="&#xe92a;" glyph-name="maximize" d="M1018.88 929.28c-5.12 10.24-15.36 20.48-25.6 25.6-5.12 5.12-15.36 5.12-20.48 5.12h-307.2c-30.72 0-51.2-20.48-51.2-51.2s20.48-51.2 51.2-51.2h184.32l-271.36-271.36c-20.48-20.48-20.48-51.2 0-71.68 10.24-10.24 20.48-15.36 35.84-15.36s25.6 5.12 35.84 15.36l271.36 271.36v-184.32c0-30.72 20.48-51.2 51.2-51.2s51.2 20.48 51.2 51.2v307.2c0 5.12 0 15.36-5.12 20.48zM373.76 381.44l-271.36-271.36v184.32c0 30.72-20.48 51.2-51.2 51.2s-51.2-20.48-51.2-51.2v-307.2c0-5.12 0-15.36 5.12-20.48 5.12-10.24 15.36-20.48 25.6-25.6 5.12-5.12 15.36-5.12 20.48-5.12h307.2c30.72 0 51.2 20.48 51.2 51.2s-20.48 51.2-51.2 51.2h-184.32l271.36 271.36c20.48 20.48 20.48 51.2 0 71.68s-51.2 20.48-71.68 0z" />
<glyph unicode="&#xe92b;" glyph-name="up-down" horiz-adv-x="1229" d="M20.51 970.039h1216.469l-608.47-1024-608 1024z" />
<glyph unicode="&#xe92c;" glyph-name="remove" d="M13.19 793.277l151.613 151.612c16.635 16.638 43.606 16.638 60.241 0l285.134-287.155 289.788 289.787c16.631 16.638 43.601 16.638 60.239 0l150.602-150.602c16.638-16.638 16.638-43.609 0-60.239l-289.787-289.788 288.165-288.164c16.631-16.635 16.631-43.606 0-60.241l-151.193-150.011c-16.638-16.635-43.609-16.635-60.239 0l-287.575 287.572-284.206-285.214c-16.635-16.635-43.607-16.635-60.241 0l-150.603 150.603c-16.635 16.635-16.635 43.606 0 60.241l284.206 285.215-286.144 286.146c-16.635 16.631-16.635 43.601 0 60.239l0.001-0.001z" />
<glyph unicode="&#xe92d;" glyph-name="power" d="M563.202 550.377c0-28.278-22.925-51.203-51.203-51.203s-51.203 22.925-51.203 51.203v0 358.42c0 28.278 22.925 51.203 51.203 51.203s51.203-22.925 51.203-51.203v0-358.42zM685.577 710.436c-15.319 9.040-25.433 25.462-25.433 44.245 0 28.278 22.925 51.203 51.203 51.203 8.762 0 17.010-2.201 24.221-6.080l-0.272 0.134c142.699-80.169 237.531-230.567 237.531-403.112 0-254.507-206.32-460.826-460.826-460.826s-460.826 206.32-460.826 460.826c0 172.547 94.832 322.944 235.218 401.917l2.313 1.195c6.822 3.597 14.911 5.706 23.491 5.706 28.278 0 51.203-22.925 51.203-51.203 0-18.618-9.937-34.916-24.797-43.878l-0.23-0.128c-111.014-62.347-184.791-179.336-184.791-313.557 0-197.95 160.471-358.42 358.42-358.42s358.42 160.471 358.42 358.42c0 134.221-73.778 251.211-182.991 312.625l-1.8 0.93z" />
<glyph unicode="&#xe92e;" glyph-name="coin" d="M512 704.001c67.896 0 133.011-26.972 181.018-74.98 48.013-48.009 74.982-113.124 74.982-181.019h-128c0 33.948-13.485 66.506-37.491 90.51s-56.562 37.491-90.51 37.491v128zM1024 448c0 135.791-53.946 266.020-149.958 362.039-96.019 96.019-226.253 149.961-362.042 149.961-135.791 0-266.020-53.943-362.039-149.961s-149.961-226.248-149.961-362.039c0-135.789 53.943-266.022 149.961-362.042 96.019-96.013 226.248-149.958 362.039-149.958 135.789 0 266.022 53.946 362.042 149.958 96.013 96.019 149.958 226.253 149.958 362.042zM896 448c0-101.843-40.454-199.513-112.474-271.527-72.012-72.019-169.684-112.474-271.527-112.474s-199.515 40.454-271.529 112.474c-72.015 72.012-112.471 169.684-112.471 271.527s40.457 199.515 112.471 271.529c72.015 72.015 169.686 112.471 271.529 112.471s199.513-40.457 271.527-112.471c72.019-72.015 112.474-169.686 112.474-271.529z" />
<glyph unicode="&#xe92f;" d="M787.804-64c-10.972 0-21.944 3.656-32.916 7.316l-241.371 135.311-237.714-131.656c-21.943-14.628-51.2-10.972-73.143 3.656s-32.914 43.889-29.257 73.144l43.886 277.944-193.828 197.484c-18.286 18.286-25.6 47.543-18.286 73.143s29.257 43.886 54.857 47.543l270.629 43.886 117.028 256c14.629 25.6 36.572 40.229 65.829 40.229 29.255 0 51.199-14.629 62.171-40.229l120.684-256 266.972-40.229c25.6-3.657 47.544-21.943 54.861-47.543 7.311-25.6 3.656-54.857-18.289-73.143l-190.172-201.141 47.544-281.6c3.656-29.261-7.316-54.861-29.256-73.144-14.628-7.316-29.261-10.972-40.228-10.972z" />
<glyph unicode="&#xe930;" d="M787.804-64c-10.972 0-21.944 3.656-32.916 7.316l-241.371 135.311-237.714-131.656c-21.943-14.628-51.2-10.972-73.143 3.656s-32.914 43.889-29.257 73.144l43.886 277.944-193.828 197.484c-18.286 18.286-25.6 47.543-18.286 73.143s29.257 43.886 54.857 47.543l270.629 43.886 117.028 256c14.629 25.6 36.572 40.229 65.829 40.229 29.255 0 51.199-14.629 62.171-40.229l120.684-256 266.972-40.229c25.6-3.657 47.544-21.943 54.861-47.543 7.311-25.6 3.656-54.857-18.289-73.143l-190.172-201.141 47.544-281.6c3.656-29.261-7.316-54.861-29.256-73.144-14.628-7.316-29.261-10.972-40.228-10.972zM513.516 883.2l-117.029-252.343c-10.971-21.943-29.257-36.572-54.857-40.229l-266.971-40.228 197.486-197.484c14.629-18.289 21.943-40.233 18.286-62.172l-43.886-277.944 237.714 131.656c21.943 10.972 47.545 10.972 65.828 0l237.716-131.656-43.889 277.944c-3.656 21.939 3.656 47.539 18.289 62.172l193.828 197.484-266.972 40.228c-25.6 3.657-47.544 18.286-58.516 40.229l-117.027 252.343z" />
<glyph unicode="&#xe931;" glyph-name="plus" d="M417.737 959.886l183.603-0.001c20.147 0.002 36.477-16.329 36.476-36.476l-1.224-346.522 350.933-0.001c20.145 0.004 36.474-16.326 36.475-36.475v-182.379c0-20.149-16.33-36.479-36.475-36.475l-350.933-0.001 0.001-348.968c-0.002-20.143-16.333-36.473-36.476-36.476l-182.38 0.716c-20.147 0.002-36.477 16.332-36.475 36.475l-0.002 348.252-344.784-0.611c-20.145 0-36.476 16.331-36.476 36.476v182.381c0 20.145 16.33 36.476 36.476 36.476l344.785 0.612 0.001 346.523c-0.002 20.143 16.327 36.473 36.475 36.475v-0.001z" />
<glyph unicode="&#xe932;" glyph-name="prev" horiz-adv-x="647" d="M601.489 960.001c11.605 0 23.107-4.827 31.323-14.275 15.097-17.253 13.248-43.544-4.005-58.538l-533.825-464.915 531.977-411.82c18.075-14.172 21.361-40.155 7.394-58.333s-40.155-21.464-58.23-7.394l-545.327 422.192c-16.432 12.735-26.188 31.939-26.804 52.684s8.010 40.566 23.723 54.122l546.56 476.006c7.805 6.881 17.561 10.27 27.215 10.27zM81.631 432.543v0 0z" />
<glyph unicode="&#xe933;" glyph-name="next" horiz-adv-x="647" d="M45.511-64.001c-11.605 0-23.107 4.827-31.323 14.275-15.097 17.253-13.248 43.544 4.005 58.538l533.825 464.915-531.977 411.82c-18.075 14.172-21.361 40.155-7.394 58.333s40.155 21.464 58.23 7.394l545.327-422.192c16.432-12.735 26.188-31.939 26.804-52.684s-8.010-40.566-23.723-54.122l-546.56-476.006c-7.805-6.881-17.561-10.27-27.215-10.27zM565.369 463.457v0 0z" />
<glyph unicode="&#xe934;" glyph-name="stop" d="M85.333 960h853.334c47.128 0 85.333-38.205 85.333-85.333v-853.334c0-47.128-38.205-85.333-85.333-85.333h-853.334c-47.128 0-85.333 38.205-85.333 85.333v853.334c0 47.128 38.205 85.333 85.333 85.333z" />
<glyph unicode="&#xe935;" horiz-adv-x="819" d="M708.925 960h-630.156c-20.883-0.024-40.905-8.33-55.672-23.097s-23.073-34.788-23.097-55.672v-905.848c0-6.856 1.791-13.599 5.196-19.548 3.405-5.955 8.305-10.916 14.216-14.397 5.911-3.476 12.628-5.35 19.486-5.432 6.858-0.087 13.619 1.623 19.614 4.951l335.301 186.296 335.368-186.296c5.996-3.328 12.759-5.038 19.615-4.951 6.861 0.087 13.573 1.961 19.487 5.437 5.908 3.476 10.808 8.438 14.213 14.392s5.197 12.692 5.197 19.548v905.848c-0.026 20.883-8.33 40.905-23.096 55.672s-34.79 23.073-55.67 23.097z" />
<glyph unicode="&#xe936;" horiz-adv-x="819" d="M708.925 960h-630.156c-20.883-0.024-40.905-8.33-55.672-23.097s-23.073-34.788-23.097-55.672v-905.848c0-6.856 1.791-13.599 5.196-19.548 3.405-5.955 8.305-10.916 14.216-14.397 5.911-3.476 12.628-5.35 19.486-5.432 6.858-0.087 13.619 1.623 19.614 4.951l335.301 186.296 335.368-186.296c5.996-3.328 12.759-5.038 19.615-4.951 6.861 0.087 13.573 1.961 19.487 5.437 5.908 3.476 10.808 8.438 14.213 14.392s5.197 12.692 5.197 19.548v905.848c-0.026 20.883-8.33 40.905-23.096 55.672s-34.79 23.073-55.67 23.097zM708.925 42.317l-295.99 164.419c-5.851 3.251-12.433 4.956-19.126 4.956s-13.276-1.705-19.126-4.956l-295.913-164.413v838.909h630.156v-838.914z" />
<glyph unicode="&#xe937;" horiz-adv-x="1229" d="M602.020-64c-15.928-0.041-31.703 3.072-46.423 9.155-14.72 6.077-28.088 15.012-39.347 26.281l-414.746 414.746c-32.763 33.121-58.609 72.43-76.030 115.637s-26.070 89.449-25.442 136.032c0.316 42.689 9.050 84.897 25.704 124.205s40.898 74.945 71.345 104.868c30.447 29.924 66.499 53.547 106.090 69.515s81.944 23.97 124.632 23.545c43.452 0.438 86.551-7.855 126.737-24.386s76.644-40.965 107.211-71.851l40.269-40.267 33.019 33.019c57.011 58.525 133.304 94.405 214.743 100.994 81.444 6.589 162.509-16.559 228.188-65.156 37.391-28.793 68.214-65.221 90.424-106.858s35.292-87.529 38.38-134.618c3.087-47.089-3.896-94.296-20.48-138.476-16.589-44.179-42.394-84.321-75.704-117.744l-422.799-423.204c-11.259-11.269-24.627-20.204-39.347-26.281-14.72-6.083-30.495-9.196-46.423-9.155z" />
<glyph unicode="&#xe938;" horiz-adv-x="1229" d="M602.020-64c-15.928-0.041-31.703 3.072-46.423 9.155s-28.088 15.012-39.347 26.281l-414.746 414.746c-32.763 33.121-58.609 72.43-76.030 115.637s-26.070 89.449-25.442 136.032c0.316 42.689 9.050 84.897 25.704 124.205s40.898 74.945 71.345 104.868c30.447 29.924 66.499 53.547 106.090 69.515s81.944 23.97 124.632 23.545c43.452 0.438 86.551-7.855 126.737-24.386s76.644-40.965 107.211-71.851l40.269-40.267 33.019 33.019c57.011 58.525 133.304 94.405 214.743 100.994 81.444 6.589 162.509-16.559 228.188-65.156 37.391-28.793 68.214-65.221 90.424-106.858s35.292-87.529 38.38-134.618c3.087-47.089-3.896-94.296-20.48-138.476-16.589-44.179-42.394-84.321-75.704-117.744l-422.799-423.204c-11.259-11.269-24.627-20.198-39.347-26.281s-30.495-9.196-46.423-9.155zM326.193 879.853c-64.004 0.066-125.521-24.773-171.536-69.259-23.46-22.571-42.116-49.651-54.847-79.612s-19.278-62.188-19.244-94.743c-0.353-35.81 6.406-71.333 19.885-104.511s33.409-63.351 58.636-88.771l414.749-414.746c3.743-3.773 8.197-6.769 13.102-8.812 4.905-2.048 10.168-3.098 15.488-3.098 5.315 0 10.578 1.050 15.483 3.098 4.91 2.043 9.359 5.038 13.102 8.812l423.204 423.606c24.842 25.367 44.037 55.702 56.32 89.013s17.382 68.846 14.956 104.267c-2.15 35.785-12.006 70.682-28.897 102.304-16.886 31.622-40.407 59.222-68.951 80.91-50.089 36.929-111.892 54.39-173.896 49.13-62.008-5.26-119.987-32.882-163.139-77.72l-59.996-61.608c-3.743-3.774-8.197-6.77-13.107-8.814-4.905-2.044-10.168-3.097-15.483-3.097s-10.578 1.053-15.488 3.097c-4.905 2.044-9.359 5.040-13.102 8.814l-68.453 68.454c-47.149 46.738-110.786 73.061-177.174 73.285h-1.61z" />
<glyph unicode="&#xe939;" glyph-name="user-alt" d="M511.204 424.486c-242.611-0.457-443.309-192.538-455.429-435.279-0.036-0.71-0.056-1.541-0.056-2.378 0-28.071 22.756-50.829 50.829-50.829 0.088 0 0.175 0 0.263 0.001h810.787c28.008 0.085 50.681 22.809 50.681 50.829 0 0.836-0.020 1.668-0.060 2.494l0.005-0.117c-12.136 243.048-213.306 435.252-456.224 435.279zM512.017 960c-128.605 0-233.453-105.34-233.453-234.089s104.847-234.451 233.453-234.451c128.606 0 233.817 105.703 233.817 234.451s-105.21 234.089-233.817 234.089z" />
<glyph unicode="&#xe93a;" glyph-name="award" d="M832 832v128h-639.999v-128h-192v-192c0-106 86-192 192-192h6.375c26.375-125.75 123.875-223.124 247.499-249.25l2.125-0.375v-134.375h-128v-128h383.999v128h-128v134.375c125.75 26.375 223.124 123.875 249.25 247.499l0.375 2.125h6.375c106 0 192 86 192 192v192h-192zM192 576.001c-35.375 0-64 28.625-64 64v64h64v-128zM704 512.001c0-106-86-192-192-192s-192 86-192 192v320h383.999v-320zM895.999 640.001c0-35.375-28.625-64-64-64v128h64v-64z" />
<glyph unicode="&#xe93b;" glyph-name="users" d="M319.981 959.968h0.041c141.079-0.431 255.312-114.932 255.312-256.11 0-118.080-79.91-217.496-190.397-247.537 6.272-40.957 41.661-72.316 84.347-72.316v0c94.263 0 170.677-76.415 170.677-170.677v-277.295h-127.992v277.295c0 23.551-19.071 42.685-42.685 42.685-58.109 0-110.841 23.231-149.303 60.989-38.461-37.758-91.194-60.989-149.303-60.989-23.615 0-42.685-19.135-42.685-42.685v-277.295h-127.992v277.295c0 94.263 76.415 170.677 170.677 170.677 42.685 0 78.075 31.358 84.347 72.316l-1.79 0.409c-109.124 29.286-189.463 128.888-189.463 247.256 0 141.376 114.608 255.984 255.984 255.984 0.079 0 0.159 0 0.225 0zM191.989 703.984c0-70.688 57.304-127.992 127.992-127.992s127.992 57.304 127.992 127.992v0c0 70.688-57.304 127.992-127.992 127.992s-127.992-57.304-127.992-127.992v0zM767.953 330.887v-394.855h255.984v239.985c0 44.157-35.838 79.995-79.995 79.995-26.508 0-47.997 21.489-47.997 47.997v0 26.878c75.242 27.156 128.056 97.948 128.056 181.076 0 106.067-85.985 192.052-192.052 192.052s-192.052-85.985-192.052-192.052c0-83.129 52.814-153.92 126.718-180.654l1.337-0.422z" />
<glyph unicode="&#xe93c;" glyph-name="place" d="M448 960h128v-192h-128v192zM888.576 876.224l110.848-64-96-166.273-110.848 64 96 166.272zM24.576 812.224l110.847 64 96-166.272-110.847-64-96 166.272zM768 576h-512v-256h-256v-384h1024v512h-256v128zM640 448v-128h256v-256h-768v128h256v256h256z" />
<glyph unicode="&#xe93d;" glyph-name="email" d="M549.905-63.998c-69.979 0-139.959 11.663-198.274 34.989-64.148 23.327-122.464 52.485-169.117 99.137-46.653 40.821-87.474 99.137-110.801 163.285-29.158 64.148-40.821 134.127-40.821 215.769 0 75.81 11.663 145.791 40.821 204.107 29.158 64.148 64.148 116.632 110.801 163.285s99.137 81.643 157.453 104.968c93.306 40.821 209.938 46.653 309.075 29.158 34.989-5.831 75.81-17.495 104.968-34.989 34.989-17.495 64.148-34.989 93.306-58.316 34.989-29.158 58.316-52.485 81.643-87.474s34.989-69.979 46.653-110.801c11.663-40.821 17.495-81.643 17.495-128.295s-5.831-93.306-17.495-134.127c-11.663-40.821-29.158-75.81-52.485-104.968s-52.485-52.485-81.643-69.979c-58.316-29.158-128.295-34.989-174.949-11.663-23.327 11.663-40.821 23.327-52.485 40.821 0 0-5.831 5.831-5.831 11.663-11.663-5.831-17.495-17.495-29.158-23.327-40.821-29.158-81.643-40.821-128.295-40.821-29.158 0-52.485 5.831-75.81 17.495s-40.821 23.327-52.485 40.821c-17.495 17.495-23.327 34.989-34.989 58.316-5.831 23.327-11.663 46.653-11.663 69.979 0 29.158 5.831 52.485 11.663 81.643 0 23.327 11.663 52.485 23.327 75.81s29.158 46.653 52.485 69.979c17.495 23.327 40.821 40.821 69.979 58.316 23.327 17.495 52.485 29.158 81.643 34.989 46.653 11.663 99.137 17.495 157.453 5.831 23.327-5.831 40.821-11.663 58.316-17.495 17.495-11.663 29.158-29.158 23.327-52.485l-81.643-268.254c0-17.495 0-34.989 0-46.653s5.831-17.495 5.831-23.327c5.831-5.831 11.663-11.663 17.495-11.663 11.663-5.831 23.327-5.831 34.989-5.831 23.327 0 46.653 5.831 64.148 17.495 23.327 11.663 40.821 29.158 58.316 46.653 17.495 23.327 29.158 46.653 40.821 75.81s17.495 64.148 17.495 104.968c0 40.821-5.831 75.81-11.663 104.968-11.663 29.158-23.327 58.316-40.821 87.474-17.495 23.327-34.989 46.653-58.316 64.148s-46.653 34.989-75.81 46.653c-29.158 11.663-58.316 23.327-87.474 29.158-93.306 17.495-186.611 11.663-268.254-23.327-46.653-17.495-93.306-46.653-128.295-87.474-40.821-34.989-69.979-81.643-93.306-134.127s-34.989-110.801-34.989-174.949c0-69.979 11.663-128.295 34.989-180.78s52.485-93.306 93.306-128.295c40.821-34.989 87.474-64.148 134.127-81.643 104.968-34.989 239.096-34.989 344.065-5.831 52.485 11.663 99.137 34.989 145.791 64.148 17.495 11.663 46.653 5.831 58.316-11.663s5.831-46.653-11.663-58.316c-52.485-34.989-110.801-58.316-169.117-75.81s-122.464-29.158-192.443-29.158zM608.221 629.964c-29.158 0-52.485-5.831-75.81-11.663s-40.821-17.495-64.148-29.158c-11.663-11.663-29.158-23.327-46.653-40.821-11.663-11.663-23.327-29.158-34.989-46.653s-17.495-34.989-23.327-58.316c-5.831-17.495-5.831-40.821-5.831-58.316s0-29.158 5.831-40.821c5.831-11.663 5.831-23.327 17.495-29.158 5.831-5.831 17.495-11.663 23.327-17.495 11.663-5.831 23.327-5.831 40.821-5.831 29.158 0 52.485 5.831 81.643 23.327 23.327 17.495 46.653 46.653 64.148 87.474l69.979 227.432c-23.327 0-34.989 0-52.485 0z" />
<glyph unicode="&#xe93e;" glyph-name="bell" d="M512-64c70.64 0 127.94 57.3 127.94 128h-255.88c0-70.7 57.3-128 127.94-128zM942.78 235.42c-38.64 41.52-110.94 103.98-110.94 308.58 0 155.4-108.96 279.8-255.88 310.32v41.68c0 35.34-28.64 64-63.96 64s-63.96-28.66-63.96-64v-41.68c-146.92-30.52-255.88-154.92-255.88-310.32 0-204.6-72.3-267.060-110.94-308.58-12-12.9-17.32-28.32-17.22-43.42 0.22-32.8 25.96-64 64.2-64h767.6c38.24 0 64 31.2 64.2 64 0.1 15.1-5.22 30.54-17.22 43.42z" />
</font>
</defs>
</svg>
