<?xml version="1.0" standalone="no"?>
<!DOCTYPE svg PUBLIC "-//W3C//DTD SVG 1.1//EN" "http://www.w3.org/Graphics/SVG/1.1/DTD/svg11.dtd" >
<svg xmlns="http://www.w3.org/2000/svg">
<metadata>Generated by IcoMoon</metadata>
<defs>
<font id="icomoon" horiz-adv-x="1024">
<font-face units-per-em="1024" ascent="960" descent="-64" />
<missing-glyph horiz-adv-x="1024" />
<glyph unicode="&#x20;" horiz-adv-x="512" d="" />
<glyph unicode="&#xe900;" glyph-name="play" d="M857.946 543.871c73.801-42.609 73.801-149.133 0-191.743l-435.892-251.662c-73.801-42.609-166.054 10.652-166.054 95.871v503.324c0 85.22 92.253 138.481 166.054 95.871l435.892-251.662z" />
<glyph unicode="&#xe901;" glyph-name="tick" d="M978.396 942.785c47.057-31.37 59.77-94.947 28.401-142.001l-550.61-825.917-429.551 472.51c-38.042 41.845-34.958 106.607 6.888 144.648s106.608 34.958 144.649-6.888l253.108-278.421 405.111 607.67c31.37 47.055 94.949 59.77 142.001 28.401z" />
<glyph unicode="&#xe902;" glyph-name="exclmark" horiz-adv-x="256" d="M237.613 959.999l-19.255-708.013h-180.706l-19.749 708.013h219.711zM128.003-63.999c-32.586 0-60.564 11.519-83.935 34.558-23.37 23.371-34.891 51.348-34.561 83.936-0.329 32.256 11.191 59.905 34.561 82.945 23.37 23.044 51.348 34.563 83.935 34.563 31.27 0 58.755-11.519 82.454-34.563 23.699-23.039 35.713-50.689 36.042-82.945-0.328-21.727-6.089-41.638-17.281-59.74-10.863-17.774-25.181-32.095-42.954-42.956-17.774-10.534-37.194-15.799-58.26-15.799z" />
<glyph unicode="&#xe903;" glyph-name="tick2" horiz-adv-x="1280" d="M1233.938 930.33c54.313-45.256 61.647-125.968 16.389-180.275l-639.998-767.998c-23.023-27.628-56.605-44.296-92.532-45.925s-70.88 11.93-96.31 37.359l-383.999 383.999c-49.987 49.987-49.987 131.032 0 181.018s131.032 49.988 181.019 0l284.887-284.887 550.267 660.32c45.256 54.307 125.969 61.645 180.274 16.389z" />
<glyph unicode="&#xe904;" glyph-name="heart" horiz-adv-x="1100" d="M550.002-64l-79.543 73.66c-282.516 260.608-469.030 433.042-469.030 643.42 0 172.434 132.755 306.921 301.714 306.921 95.453 0 187.064-45.201 246.858-116.072 59.794 70.871 151.405 116.072 246.857 116.072 168.96 0 301.714-134.487 301.714-306.921 0-210.379-186.514-382.813-469.028-643.42l-79.543-73.66z" />
<glyph unicode="&#xe905;" glyph-name="down" d="M1004.442 731.662c26.077-26.081 26.077-68.365 0-94.445l-492.442-492.44-492.44 492.44c-26.081 26.081-26.081 68.365 0 94.445s68.365 26.081 94.445 0l397.996-397.997 397.994 397.997c26.081 26.081 68.368 26.081 94.448 0z" />
<glyph unicode="&#xe906;" glyph-name="trash" d="M930.908 773.817h-186.181v46.546c0 37.297-14.524 72.363-40.899 98.738s-61.439 40.899-98.737 40.899h-186.182c-37.296 0-72.362-14.524-98.737-40.898s-40.9-61.439-40.9-98.739v-46.546h-186.182c-25.706 0-46.546-20.84-46.546-46.546s20.84-46.546 46.546-46.546h46.546v-605.089c0-37.296 14.524-72.36 40.898-98.736s61.44-40.9 98.739-40.9h465.454c37.297 0 72.362 14.524 98.737 40.899s40.899 61.439 40.899 98.737v605.089h46.545c25.706 0 46.546 20.84 46.546 46.546s-20.84 46.546-46.546 46.546zM372.364 820.361c0 12.433 4.841 24.121 13.633 32.912 8.793 8.793 20.482 13.635 32.914 13.635h186.182c12.432 0 24.12-4.841 32.912-13.634s13.633-20.48 13.633-32.913v-46.546h-279.272v46.546zM791.272 75.637c0-12.432-4.841-24.12-13.633-32.912s-20.48-13.633-32.912-13.633h-465.454c-12.433 0-24.121 4.841-32.912 13.632-8.793 8.794-13.635 20.481-13.635 32.913v605.089h558.543v-605.089zM605.090 168.727c25.706 0 46.546 20.84 46.546 46.546v279.272c0 25.706-20.84 46.546-46.546 46.546s-46.546-20.84-46.546-46.546v-279.272c0-25.706 20.84-46.546 46.546-46.546zM418.91 168.727c25.706 0 46.546 20.84 46.546 46.546v279.272c0 25.706-20.84 46.546-46.546 46.546s-46.546-20.84-46.546-46.546v-279.272c0-25.706 20.84-46.546 46.546-46.546z" />
<glyph unicode="&#xe907;" glyph-name="user" d="M512 864c-159.059 0-288-128.942-288-288 0-105.061 56.255-196.982 140.287-247.286-31.993-10.343-62.941-24.060-92.303-41.006-72.979-42.119-133.588-102.704-175.739-175.662-8.841-15.303-3.603-34.875 11.7-43.716s34.875-3.603 43.716 11.7c36.533 63.234 89.064 115.743 152.315 152.248s134.995 55.721 208.027 55.721c73.027 0 144.771-19.22 208.022-55.728 63.249-36.505 115.78-89.014 152.31-152.25 8.841-15.303 28.413-20.542 43.716-11.702s20.542 28.413 11.702 43.716c-42.149 72.962-102.759 133.547-175.734 175.666-29.364 16.948-60.314 30.667-92.308 41.012 84.033 50.302 140.289 142.225 140.289 247.287 0 159.059-128.941 288-288 288zM288 576c0 123.712 100.287 224 224 224s224-100.287 224-224c0-123.713-100.287-224-224-224s-224 100.288-224 224z" />
<glyph unicode="&#xe908;" glyph-name="right" horiz-adv-x="601" d="M20.936 943.337c22.216 22.217 58.237 22.217 80.453 0l495.338-495.338-495.338-495.338c-22.217-22.214-58.237-22.214-80.453 0-22.217 22.217-22.217 58.237 0 80.453l414.885 414.885-414.885 414.885c-22.217 22.217-22.217 58.237 0 80.453z" />
<glyph unicode="&#xe909;" glyph-name="left" horiz-adv-x="601" d="M580.064-47.337c-22.216-22.217-58.237-22.217-80.453 0l-495.338 495.338 495.338 495.338c22.217 22.214 58.237 22.214 80.453 0 22.217-22.217 22.217-58.237 0-80.453l-414.885-414.885 414.885-414.885c22.217-22.217 22.217-58.237 0-80.453z" />
<glyph unicode="&#xe90a;" glyph-name="cart" d="M778.665 64c0 41.238 33.428 74.666 74.666 74.666s74.666-33.428 74.666-74.666c0-41.238-33.428-74.666-74.666-74.666s-74.666 33.428-74.666 74.666zM853.331 74.666c-5.892 0-10.666-4.774-10.666-10.666s4.774-10.666 10.666-10.666c5.892 0 10.666 4.774 10.666 10.666s-4.774 10.666-10.666 10.666zM309.334 64c0 41.241 33.434 74.666 74.669 74.666 41.238 0 74.666-33.428 74.666-74.666s-33.428-74.666-74.666-74.666c-41.235 0-74.669 33.425-74.669 74.666zM384.003 74.666c-5.895 0-10.669-4.777-10.669-10.666s4.774-10.666 10.669-10.666c5.892 0 10.666 4.774 10.666 10.666s-4.774 10.666-10.666 10.666zM10.664 917.333c0 17.673 14.327 32 32 32h170.667c15.252 0 28.384-10.764 31.378-25.72l37.55-187.614h699.074c9.537 0 18.577-4.254 24.657-11.602s8.56-17.024 6.78-26.392l-68.269-357.974c-0.016-0.082-0.032-0.163-0.048-0.245-5.367-27.003-20.058-51.263-41.507-68.532l-0.006-0.005c-21.365-17.193-48.074-26.364-75.492-25.915h-414.152c-27.42-0.449-54.131 8.721-75.495 25.917l-0.003 0.003c-21.441 17.263-36.136 41.514-41.504 68.518-0.001 0.007-0.003 0.013-0.004 0.019l-71.336 356.418c-0.243 0.972-0.442 1.961-0.594 2.965l-37.259 186.159h-144.437c-17.673 0-32 14.327-32 32zM295.069 671.999l63.995-319.74c2.437-12.273 9.116-23.302 18.87-31.155 9.75-7.847 21.949-12.016 34.465-11.776 0.204 0.004 0.409 0.006 0.613 0.006h414.72c0.205 0 0.409-0.002 0.614-0.006 12.508-0.24 24.708 3.927 34.464 11.776 9.722 7.828 16.391 18.816 18.849 31.051l60.995 319.844h-647.585z" />
<glyph unicode="&#xe90b;" glyph-name="check" horiz-adv-x="1396" d="M1371.954 903.613c32.066-32.351 32.066-84.802 0-117.152l-763.119-769.81c-64.138-64.707-168.126-64.697-232.263 0l-352.525 355.616c-32.069 32.348-32.069 84.803 0 117.151s84.063 32.348 116.133 0l352.524-355.62 763.119 769.814c32.066 32.35 84.055 32.35 116.13 0z" />
<glyph unicode="&#xe90c;" glyph-name="close" d="M572.341 448.003l268.491 268.501c16.661 16.661 16.661 43.68 0 60.331-16.661 16.661-43.669 16.661-60.331 0l-268.501-268.491-268.491 268.491c-16.661 16.661-43.68 16.661-60.341 0s-16.661-43.68 0-60.331l268.501-268.501-268.501-268.501c-16.661-16.661-16.661-43.68 0-60.331 8.331-8.331 19.253-12.501 30.165-12.501s21.845 4.171 30.176 12.501l268.491 268.491 268.501-268.491c8.331-8.331 19.253-12.501 30.165-12.501s21.845 4.171 30.165 12.501c16.661 16.661 16.661 43.68 0 60.331l-268.491 268.501z" />
<glyph unicode="&#xe90d;" glyph-name="dc" d="M866.848 773.552c-66.39 30.467-136.448 52.195-208.426 64.64-0.659 0.128-1.338 0.044-1.942-0.24-0.608-0.284-1.107-0.753-1.43-1.339-8.96-16-18.944-36.864-25.939-53.333-77.594 11.766-156.518 11.766-234.112 0-7.818 18.236-16.605 36.039-26.326 53.333-0.349 0.561-0.854 1.009-1.453 1.289-0.595 0.28-1.264 0.381-1.917 0.289-71.99-12.398-142.056-34.128-208.428-64.64-0.531-0.283-0.996-0.676-1.365-1.152-132.779-198.358-169.173-391.808-151.296-582.825 0.038-0.477 0.176-0.938 0.404-1.357s0.541-0.787 0.919-1.075c77.295-57.267 163.759-100.986 255.701-129.28 0.649-0.176 1.335-0.157 1.972 0.054 0.637 0.214 1.198 0.608 1.612 1.139 19.781 26.848 37.278 55.309 52.309 85.078 0.21 0.406 0.331 0.854 0.355 1.312s-0.048 0.915-0.214 1.341c-0.165 0.429-0.419 0.816-0.745 1.136-0.326 0.323-0.716 0.573-1.146 0.733-27.595 10.538-54.304 23.267-79.872 38.058-0.469 0.272-0.863 0.656-1.148 1.117-0.285 0.458-0.452 0.982-0.486 1.523s0.067 1.082 0.292 1.574c0.226 0.493 0.57 0.922 1.001 1.248 5.388 4.026 10.68 8.182 15.872 12.458 0.444 0.387 0.993 0.637 1.578 0.71 0.585 0.077 1.179-0.022 1.707-0.282 167.595-76.502 349.012-76.502 514.644 0 0.534 0.269 1.136 0.374 1.731 0.298 0.592-0.077 1.149-0.33 1.597-0.726 5.149-4.237 10.454-8.39 15.917-12.458 0.426-0.323 0.768-0.742 0.995-1.229 0.224-0.483 0.33-1.014 0.307-1.549-0.026-0.534-0.182-1.053-0.454-1.514s-0.65-0.848-1.104-1.126c-25.52-14.915-52.253-27.648-79.917-38.061-0.429-0.163-0.819-0.419-1.146-0.742-0.326-0.326-0.582-0.72-0.746-1.149-0.166-0.432-0.237-0.893-0.214-1.354 0.026-0.458 0.147-0.909 0.358-1.318 15.36-29.782 32.938-58.112 52.266-85.037 0.413-0.528 0.973-0.925 1.613-1.136 0.637-0.214 1.322-0.234 1.971-0.058 92.109 28.179 178.717 71.904 256.086 129.28 0.371 0.272 0.682 0.618 0.918 1.011 0.234 0.397 0.384 0.835 0.445 1.293 21.334 220.886-35.754 412.758-151.424 582.827-0.266 0.576-0.736 0.989-1.322 1.237zM342.176 305.926c-50.432 0-92.032 46.291-92.032 103.21 0 56.874 40.789 103.21 92.032 103.21 51.626 0 92.842-46.762 92.032-103.251 0-56.877-40.79-103.168-92.032-103.168zM682.442 305.926c-50.474 0-92.032 46.291-92.032 103.21 0 56.874 40.749 103.21 92.032 103.21 51.629 0 92.845-46.762 92.032-103.251 0-56.877-40.362-103.168-92.032-103.168z" />
<glyph unicode="&#xe90e;" glyph-name="menu" d="M128 661.333h768c23.563 0 42.667 19.104 42.667 42.667s-19.104 42.667-42.667 42.667h-768c-23.563 0-42.667-19.104-42.667-42.667s19.104-42.667 42.667-42.667zM896 490.667h-768c-23.563 0-42.667-19.104-42.667-42.667s19.104-42.667 42.667-42.667h768c23.563 0 42.667 19.104 42.667 42.667s-19.104 42.667-42.667 42.667zM896 234.667h-768c-23.563 0-42.667-19.104-42.667-42.667s19.104-42.667 42.667-42.667h768c23.563 0 42.667 19.104 42.667 42.667s-19.104 42.667-42.667 42.667z" />
<glyph unicode="&#xe90f;" glyph-name="pause" d="M402.289 832h-109.709c-30.28 0-54.854-24.576-54.854-54.854v-658.29c0-30.28 24.576-54.854 54.854-54.854h109.71c30.312 0 54.856 24.552 54.856 54.854v658.29c-0.001 30.278-24.552 54.854-54.857 54.854zM731.431 832h-109.709c-30.312 0-54.856-24.576-54.856-54.854v-658.29c0-30.28 24.552-54.854 54.856-54.854h109.71c30.312 0 54.856 24.552 54.856 54.854v658.29c-0.001 30.278-24.552 54.854-54.857 54.854z" />
<glyph unicode="&#xe910;" glyph-name="ig" d="M332.799 874.667h358.4c136.534 0 247.469-110.933 247.469-247.465v-358.4c0-65.635-26.074-128.579-72.483-174.986-46.41-46.41-109.354-72.483-174.986-72.483h-358.4c-136.532 0-247.466 110.934-247.466 247.469v358.4c0 65.631 26.072 128.575 72.481 174.984s109.353 72.481 174.985 72.481zM324.267 789.334c-40.739 0-79.807-16.183-108.613-44.988s-44.988-67.874-44.988-108.612v-375.466c0-84.906 68.693-153.6 153.601-153.6h375.466c40.736 0 79.805 16.182 108.611 44.989 28.806 28.803 44.989 67.872 44.989 108.611v375.466c0 84.907-68.694 153.601-153.6 153.601h-375.466zM735.999 725.334c14.147 0 27.712-5.619 37.712-15.621 10.003-10.002 15.622-23.567 15.622-37.712s-5.619-27.71-15.622-37.714c-10-10-23.565-15.619-37.712-15.619-14.144 0-27.709 5.619-37.712 15.619-10 10.003-15.619 23.569-15.619 37.714s5.619 27.71 15.619 37.712c10.003 10.002 23.568 15.621 37.712 15.621zM511.999 661.334c56.579 0 110.842-22.477 150.851-62.484 40.006-40.006 62.483-94.269 62.483-150.848 0-56.582-22.477-110.845-62.483-150.851-40.010-40.006-94.272-62.483-150.851-62.483s-110.842 22.477-150.848 62.483c-40.010 40.006-62.484 94.269-62.484 150.851 0 56.579 22.475 110.842 62.484 150.848 40.006 40.006 94.269 62.484 150.848 62.484zM511.999 576.002c-33.946 0-66.506-13.488-90.509-37.491-24.003-24.006-37.491-56.563-37.491-90.509 0-33.949 13.488-66.506 37.491-90.512 24.003-24.003 56.563-37.488 90.509-37.488 33.949 0 66.506 13.485 90.512 37.488 24.003 24.006 37.488 56.563 37.488 90.512 0 33.946-13.485 66.502-37.488 90.509-24.006 24.003-56.563 37.491-90.512 37.491z" />
<glyph unicode="&#xe911;" glyph-name="upload" horiz-adv-x="1233" d="M448.604 959.687c69.753 2.57 139.183-10.706 203.066-38.832s120.561-70.366 165.771-123.549c35.080-41.269 62.55-88.294 81.258-138.867h19.74c69.082-0.045 136.182-23.095 190.709-65.512 54.529-42.415 93.377-101.783 110.418-168.729 17.039-66.949 11.3-137.664-16.315-200.987s-75.528-115.647-136.182-148.714c-28.87-15.739-65.031-5.096-80.77 23.773s-5.094 65.031 23.775 80.77c37.426 20.404 66.994 52.69 84.032 91.764 17.041 39.074 20.583 82.711 10.069 124.023-10.516 41.31-34.488 77.943-68.134 104.117-33.637 26.165-75.028 40.386-117.641 40.424-0.002 0 0.002 0 0 0-0.012 0-0.029 0-0.041 0h-63.314c-27.141 0-50.846 18.356-57.639 44.632-12.967 50.155-37.135 96.716-70.686 136.185s-75.614 70.819-123.025 91.693c-47.414 20.873-98.94 30.726-150.706 28.819-51.77-1.907-102.431-15.526-148.178-39.83s-85.39-58.665-115.946-100.496c-30.556-41.832-51.232-90.045-60.473-141.019-9.241-50.971-6.806-103.374 7.121-153.271 13.928-49.895 38.985-95.984 73.289-134.802 21.773-24.638 19.45-62.264-5.188-84.037s-62.262-19.449-84.035 5.189c-46.221 52.305-79.985 114.407-98.751 181.638s-22.047 137.843-9.595 206.524c12.451 68.682 40.311 133.646 81.484 190.011s94.588 102.662 156.229 135.412c61.642 32.75 129.905 51.099 199.661 53.67zM574.618 490.16c23.249 23.249 60.945 23.249 84.196 0l201.121-201.123c23.251-23.249 23.251-60.947 0-84.196-23.249-23.249-60.945-23.249-84.194 0l-99.49 99.492v-308.798c0-32.88-26.655-59.535-59.535-59.535s-59.535 26.655-59.535 59.535v308.798l-99.49-99.492c-23.251-23.249-60.947-23.249-84.196 0s-23.249 60.947 0 84.196l201.123 201.123z" />
<glyph unicode="&#xe912;" glyph-name="calendar" horiz-adv-x="922" d="M256.2 960c28.277 0 51.2-22.923 51.2-51.2v-51.2h307.199v51.2c0 28.277 22.922 51.2 51.2 51.2s51.2-22.923 51.2-51.2v-51.202c23.506-0.014 43.996-0.159 61.189-1.564 20.239-1.654 40.366-5.306 59.735-15.176 28.882-14.715 52.408-38.204 67.144-67.127 9.876-19.378 13.522-39.515 15.176-59.753 1.556-19.143 1.556-42.381 1.556-69.309v-495.728c0-26.931 0-50.171-1.556-69.32-1.654-20.239-5.299-40.376-15.176-59.756-14.735-28.928-38.272-52.408-67.144-67.123-19.369-9.866-39.496-13.522-59.735-15.176-19.18-1.567-42.465-1.567-69.463-1.567h-495.426c-27.001 0-50.297 0-69.485 1.567-20.243 1.654-40.383 5.304-59.758 15.176-28.91 14.73-52.392 38.226-67.114 67.123-9.871 19.374-13.523 39.506-15.176 59.75-1.567 19.18-1.566 42.465-1.565 69.453v495.467c-0.001 26.99-0.002 50.273 1.565 69.45 1.654 20.241 5.305 40.373 15.176 59.745 14.719 28.889 38.199 52.394 67.114 67.127 19.376 9.872 39.517 13.523 59.76 15.176 17.193 1.404 37.685 1.549 61.185 1.564v51.202c0 28.277 22.923 51.2 51.2 51.2zM215.25 755.2c-29.519 0-48.586-0.040-63.099-1.225-13.919-1.137-19.079-3.067-21.607-4.355-9.62-4.902-17.448-12.729-22.364-22.376-1.29-2.532-3.219-7.689-4.356-21.596-1.042-12.755-1.199-29.032-1.222-52.847h716.79c-0.020 23.819-0.174 40.096-1.213 52.855-1.137 13.911-3.062 19.062-4.352 21.588-4.895 9.613-12.739 17.457-22.395 22.376-2.534 1.291-7.69 3.219-21.591 4.355-14.5 1.185-33.551 1.225-63.073 1.225h-491.519zM819.399 550.401h-716.799v-399.359c0-29.517 0.040-48.579 1.225-63.089 1.137-13.911 3.066-19.067 4.356-21.596 4.913-9.646 12.738-17.469 22.364-22.374 2.529-1.285 7.69-3.215 21.608-4.357 14.513-1.183 33.58-1.224 63.098-1.224h491.519c29.517 0 48.573 0.041 63.073 1.224 13.901 1.137 19.057 3.067 21.591 4.357 9.661 4.925 17.5 12.764 22.395 22.374 1.29 2.524 3.215 7.675 4.352 21.591 1.183 14.51 1.219 33.572 1.219 63.094v399.359zM205 396.801c0 28.278 22.923 51.2 51.2 51.2h0.102c13.787 0 26.991-5.56 36.624-15.421s14.884-23.194 14.562-36.977l-0.003-0.102c-0.317-13.578-6.018-26.476-15.848-35.85s-22.983-14.464-36.562-14.136h-0.1c-27.792 0.666-49.975 23.388-49.975 51.185v0.102zM409.8 396.801c0 28.278 22.923 51.2 51.2 51.2h0.102c13.787 0 26.991-5.56 36.624-15.421s14.883-23.194 14.56-36.977v-0.102c-0.318-13.578-6.019-26.476-15.849-35.85s-22.983-14.464-36.562-14.136h-0.1c-27.792 0.666-49.975 23.388-49.975 51.185v0.102zM614.6 396.801c0 28.278 22.922 51.2 51.2 51.2h0.102c28.273 0 51.2-22.922 51.2-51.2v-0.102c0-13.793-5.565-26.998-15.432-36.634-9.871-9.636-23.209-14.884-36.997-14.551h-0.097c-27.791 0.666-49.976 23.388-49.976 51.185v0.102zM205 192.001c0 28.278 22.923 51.2 51.2 51.2h0.102c13.787 0 26.991-5.56 36.624-15.421s14.884-23.194 14.562-36.977l-0.003-0.102c-0.317-13.578-6.018-26.476-15.848-35.85s-22.983-14.464-36.562-14.136h-0.1c-27.792 0.666-49.975 23.388-49.975 51.185v0.102zM409.8 192.001c0 28.278 22.923 51.2 51.2 51.2h0.102c13.787 0 26.991-5.56 36.624-15.421s14.883-23.194 14.56-36.977v-0.102c-0.318-13.578-6.019-26.476-15.849-35.85s-22.983-14.464-36.562-14.136h-0.1c-27.792 0.666-49.975 23.388-49.975 51.185v0.102zM614.6 192.001c0 28.278 22.922 51.2 51.2 51.2h0.102c13.788 0 26.993-5.56 36.623-15.421 9.636-9.861 14.884-23.194 14.561-36.977v-0.102c-0.317-13.578-6.021-26.476-15.852-35.85-9.825-9.375-22.979-14.464-36.562-14.136h-0.097c-27.791 0.666-49.976 23.388-49.976 51.185v0.102z" />
<glyph unicode="&#xe913;" glyph-name="businessman" d="M470.972 957.386c-56.73-10.853-100.388-34.038-137.879-73.502-31.572-32.805-51.797-68.076-63.39-110.5-4.933-18.252-5.673-26.392-5.426-62.896 0-35.025 0.987-45.137 5.426-61.17 13.319-48.591 41.191-92.988 78.435-125.299l11.099-9.619-6.906-2.713c-127.519-47.851-227.167-139.112-290.556-266.138-29.105-58.21-51.304-131.219-51.057-168.957 0-60.923 40.451-115.187 99.648-134.672l18.006-5.92h769.555l16.032 5.673c35.518 12.826 66.103 38.478 81.889 68.816 24.665 46.864 23.432 83.122-5.426 167.23-51.057 148.485-162.051 270.084-295.983 324.595-14.306 5.673-26.392 10.853-26.885 11.346-0.493 0.247 9.126 11.099 21.459 23.925 33.298 34.285 53.030 68.816 65.116 112.473 4.933 18.252 5.673 26.392 5.426 62.896-0.247 38.231-0.74 43.904-6.906 64.13-13.073 44.151-31.572 75.722-62.896 108.034-45.631 47.357-103.347 72.516-170.437 74.736-19.732 0.493-37.245-0.247-48.344-2.467zM545.954 878.21c42.178-8.386 83.862-36.505 108.034-73.256 32.065-47.851 37.245-113.953 13.073-164.764-22.445-47.604-63.39-81.889-113.213-95.208-21.459-5.673-62.403-5.673-83.862 0-61.91 16.772-110.994 67.336-124.559 128.753-6.413 28.365-4.193 64.87 5.426 92.495 28.118 81.149 110.994 128.506 195.102 111.98zM553.6 354.567l20.719-104.581-62.403-62.403-62.403 62.403 20.225 102.114c11.099 55.99 20.719 103.347 21.212 105.074 0.987 2.22 6.66 2.96 21.459 2.467l20.225-0.74 20.965-104.334zM407.335 441.142c-0.74-2.467-10.113-49.824-21.212-105.321-19.732-99.154-19.979-101.127-16.279-110.994 2.96-7.646 18.746-24.912 63.636-69.803 83.862-83.368 73.009-83.615 157.858 1.233 50.317 50.564 61.17 62.65 63.39 70.789 2.22 8.633 0.247 21.952-17.266 109.76-10.853 55.003-20.472 102.114-21.212 104.581-1.233 4.193-0.247 4.44 6.413 3.206 14.552-2.96 58.21-21.459 82.875-35.025 92.248-50.81 166.984-140.838 206.941-248.626 19.732-52.784 25.405-87.808 17.759-106.307-4.686-11.593-20.225-27.872-32.065-34.285l-10.113-5.426h-376.145c-362.086 0-376.391 0.247-384.778 4.686-10.853 5.673-26.392 20.472-31.078 29.352-10.113 19.239-8.386 40.451 8.14 91.755 29.598 91.755 82.135 170.19 152.185 226.674 38.971 31.572 72.022 50.564 118.64 68.323 27.872 10.606 34.285 11.839 32.311 5.426z" />
<glyph unicode="&#xe914;" glyph-name="arrow" horiz-adv-x="1707" d="M985.444-8.244c-72.257-74.341-191.632-74.341-263.888 0l-637.609 656.001c-113.375 116.646-30.722 312.243 131.944 312.243h1275.218c162.668 0 245.316-195.597 131.944-312.243l-637.609-656.001z" />
<glyph unicode="&#xe915;" glyph-name="handshake" d="M12.874 766.463c-2.2-1-5.801-3.8-8.001-6.201-4.001-4.401-4.001-7.601-4.601-202.825-0.6-180.623-0.4-198.825 2.6-204.426 1.8-3.6 5.601-7.401 8.201-8.601 3.4-1.4 27.803-2.2 75.609-2.2 81.21 0 78.21-0.6 84.411 18.602l3.2 10.401 35.404-35.204c32.804-32.804 57.007-53.207 124.216-106.013 43.005-33.804 94.812-72.209 107.013-79.61 16.602-10.001 48.606-20.403 66.808-21.603 17.202-1.2 37.005 2.8 46.206 9.401 5.201 3.6 6.801 3.8 15.002 1.8 27.403-7.001 60.008 7.801 79.21 35.404 5.401 8.001 5.801 8.201 15.402 7.201 27.403-2.6 60.208 13.802 73.409 36.605 4.601 7.801 5.801 8.401 18.202 10.801 16.602 3 26.603 8.001 39.005 19.602 13.602 12.802 20.203 27.603 21.003 46.606l0.4 15.002 14.802 10.401c8.001 5.801 15.602 10.401 16.602 10.401 1.2 0.2 3.8-5.401 6.001-12.202 6.801-21.203 4.001-20.403 81.61-21.203 73.809-0.8 79.21 0 85.411 10.201 3.8 6.201 4.001 11.601 4.001 203.425 0 190.824-0.2 197.225-3.8 203.225-6.401 10.401-12.402 11.401-60.208 8.801-75.609-3.8-132.817-13.202-188.224-31.204-38.005-12.202-47.206-19.002-45.206-33.204l1-7.401-10.401 4.001c-5.601 2.4-15.602 6.201-22.203 8.801-6.601 2.4-34.804 14.002-62.608 25.803-59.007 25.003-80.41 31.204-108.214 31.204-31.004 0-56.007-8.601-87.411-30.204l-14.002-9.801h-169.221l1.4 12.802c1 9.801 0.6 14.002-1.8 19.002-10.801 20.603-68.209 37.605-162.62 48.006-45.806 5.001-72.609 6.601-77.61 4.401zM80.882 720.257c53.207-6.001 99.612-14.602 120.615-22.403l10.601-4.001-1.2-9.201c-7.801-56.807-37.405-172.422-75.209-293.837l-2.2-6.601h-91.611v170.021c0 93.612 0.6 170.021 1.6 170.021 0.8 0 17.602-1.8 37.405-4.001zM981.995 512.231v-170.021h-91.611l-8.401 26.603c-21.003 66.208-69.009 197.825-91.211 250.431-7.001 16.402-12.002 30.404-11.201 31.204 2.2 2 37.405 11.401 62.408 16.602 40.405 8.401 89.411 14.402 123.615 15.002l16.402 0.2v-170.021zM548.541 677.052c8.001-1.8 22.603-6.801 32.404-10.801 10.001-4.201 37.405-15.602 61.008-25.403s58.607-23.803 77.61-30.804l34.404-12.802 12.202-31.004c24.003-61.208 69.209-189.424 67.608-190.824-0.4-0.4-9.201-6.201-19.402-13.002l-18.602-12.402-5.201 6.601c-21.403 26.203-62.208 63.008-135.617 122.615-53.607 43.605-76.010 62.208-93.012 78.21-16.402 15.202-21.603 18.802-27.803 18.802-2.6 0-16.002-4.401-29.604-10.001-13.602-5.401-26.803-10.001-29.204-10.001-7.801-0.2-19.602-5.601-23.003-10.401-6.601-9.601-23.603-26.203-31.604-30.804-13.202-7.801-27.803-9.801-43.005-6.001-7.001 1.8-14.002 4.801-15.402 6.801-6.801 8.601 5.401 42.405 25.203 70.209 18.602 26.403 69.209 71.409 93.412 83.21 22.403 11.001 43.005 13.402 67.608 7.801zM370.918 633.846c-52.007-63.808-66.408-115.214-40.805-146.218 12.202-14.802 44.806-25.203 71.209-22.603 25.603 2.6 47.206 14.002 68.409 35.804 9.201 9.201 14.802 13.402 19.602 14.402 3.8 0.6 14.002 4.401 23.003 8.201l16.202 6.801 10.201-9.601c11.601-10.801 37.205-32.204 100.013-83.21 116.015-94.612 145.618-129.016 130.616-152.019-4.801-7.201-15.002-13.202-22.803-13.202-8.801 0-25.403 14.802-87.211 78.61-53.807 55.407-57.207 58.007-70.009 52.607-12.202-5.001-16.602-19.002-9.601-30.204 2-3.2 30.604-33.404 63.408-66.808 33.004-33.404 59.607-61.808 59.207-63.008-2.2-7.001-14.602-15.002-27.203-17.402-16.202-3-18.402-1.4-76.41 57.407-29.804 30.004-56.807 55.607-59.807 56.807-8.001 3-18.402-0.8-23.203-8.801-4.801-7.801-4.801-14.602 0-22.403 2-3.4 25.603-28.404 52.207-55.607l48.406-49.206-5.401-7.201c-10.601-14.002-24.403-19.202-36.405-13.602-4.801 2.2-28.404 24.403-62.808 59.207-54.007 54.207-55.607 55.607-63.408 55.607-15.202 0-25.603-14.802-19.802-28.404 1.6-3.6 22.803-27.203 47.406-52.207 24.403-25.003 44.006-46.006 43.205-46.806-1.8-2-25.003 2.6-38.005 7.401-15.202 5.801-36.005 20.003-93.212 64.008-87.411 67.208-125.216 99.412-162.42 138.217-19.002 19.802-34.804 36.805-35.204 37.805s5.401 22.603 12.602 48.206c14.602 50.806 32.004 118.615 39.205 152.419l4.401 21.403h129.616l-5.201-6.401z" />
<glyph unicode="&#xe916;" glyph-name="logo" horiz-adv-x="1263" d="M582.525-63.998c-57.187 0.45-118.428 4.053-183.725 10.808-65.293 6.305-131.488 15.984-198.583 29.043-67.095 13.512-131.94 30.624-194.533 51.336 10.808 45.031 21.614 87.361 32.422 126.987 10.808 40.079 21.84 82.181 33.098 126.309 0 3.154 1.801 4.731 5.403 4.731 65.745-16.213 126.536-30.624 182.374-43.23 55.838-12.159 113.251-21.839 172.24-29.047 58.993-6.754 125.639-10.13 199.938-10.13 15.31 0 31.069 0.899 47.283 2.701 16.662 1.801 30.846 5.402 42.552 10.808 11.71 5.402 17.565 13.284 17.565 23.642 0 15.76-6.080 25.215-18.239 28.369-12.156 3.151-21.839 5.177-29.043 6.080-70.699 11.257-139.596 22.289-206.692 33.097s-129.688 23.642-187.778 38.502c-57.639 15.31-108.524 34.898-152.654 58.764-43.68 23.866-77.903 54.486-102.67 91.861-24.317 37.378-36.475 83.758-36.475 139.146 0 58.99 13.735 108.074 41.203 147.25s64.844 70.473 112.127 93.889c47.732 23.866 101.995 41.653 162.786 53.362 60.792 12.158 124.51 20.039 191.156 23.641 67.095 4.053 133.292 6.079 198.585 6.079 39.176 0 81.506-2.702 126.987-8.106s90.508-12.608 135.091-21.614c44.581-9.006 85.107-18.913 121.582-29.721 36.925-10.808 66.197-21.389 87.811-31.746-15.31-57.189-28.144-105.147-38.502-143.873-9.905-38.276-21.389-71.824-34.448-100.645-62.143 17.114-123.159 31.523-183.047 43.231-59.442 11.707-114.153 20.489-164.137 26.343-49.534 6.304-90.737 9.456-123.612 9.456-16.659 0-36.247-0.901-58.764-2.702-22.514-1.351-42.327-5.178-59.439-11.482-16.662-5.854-24.993-15.986-24.993-30.396 0-13.509 11.257-22.966 33.775-28.369 22.964-4.953 55.61-11.034 97.941-18.237 56.738-9.458 114.603-19.138 173.592-29.047 59.442-9.455 116.404-21.161 170.891-35.123 54.489-13.958 103.121-32.197 145.901-54.711 43.23-22.517 77.453-51.336 102.669-86.459 25.218-34.673 37.827-77.903 37.827-129.688 0-64.844-16.662-119.331-49.984-163.463-32.872-43.679-79.48-78.577-139.821-104.695s-131.715-44.806-214.121-56.064c-82.406-11.257-172.918-16.887-271.536-16.887z" />
<glyph unicode="&#xe917;" glyph-name="tools" d="M174.826 957.269c-22.212-4.202-42.022-11.206-69.637-24.613l-23.613-11.406 54.229-54.029 54.029-54.029-43.023-43.023-108.258 108.258-11.806-24.613c-21.612-45.624-28.415-75.64-26.414-114.461 5.803-107.257 88.848-191.903 196.505-200.307 20.611-1.601 46.825 1.001 70.037 7.204l15.808 4.002 59.232-59.232-156.684-157.084c-115.662-116.062-158.285-160.086-163.287-168.49-16.409-28.015-23.413-56.83-21.612-87.647 2.401-38.22 16.409-69.237 44.424-97.252 15.208-15.408 21.011-19.61 37.020-27.415 23.012-11.406 37.22-15.208 61.033-16.809 29.216-1.801 59.232 5.603 86.646 21.612 8.404 5.003 52.428 47.625 168.49 163.287l157.084 156.684 59.432-59.432-5.603-21.812c-5.003-19.21-5.603-25.213-5.403-50.827 0.2-32.217 4.202-53.228 16.609-82.444 30.016-72.239 102.855-122.666 183.298-127.068 38.821-2.001 70.238 5.203 115.262 26.814l23.813 11.406-53.028 53.028c-29.416 29.416-53.228 54.229-53.228 55.23s9.205 11.206 20.411 22.412l20.611 20.611 108.258-108.258 11.406 23.813c21.612 45.024 28.815 76.441 26.814 115.262-4.002 74.44-45.624 140.475-110.059 175.294-32.217 17.409-61.233 24.613-100.454 24.613-24.213 0.2-30.816-0.6-49.827-5.403l-21.812-5.603-102.455 102.455 182.698 182.698 38.621 7.404c21.411 4.202 47.625 9.205 58.431 11.206s20.811 4.602 22.212 5.603c2.401 2.001 81.243 211.913 81.243 216.316 0 2.601-84.445 87.047-87.047 87.047-2.801 0-213.714-78.442-215.915-80.243-1.001-0.8-6.804-28.215-13.207-60.833l-11.406-59.432-182.698-182.698-102.855 102.855 3.202 10.606c8.805 28.815 11.206 70.638 5.803 98.653-13.407 68.437-56.63 124.066-119.464 153.282-36.019 17.009-86.246 23.813-123.866 16.809zM248.865 895.036c60.032-16.209 103.455-66.235 111.059-128.269 3.602-28.415-1.401-56.43-15.208-86.446l-7.004-15.008 195.905-195.705 195.705-195.905 15.008 7.004c30.016 13.807 58.031 18.81 86.446 15.208 62.233-7.804 112.86-51.628 128.469-111.66 4.002-15.408 6.003-41.422 4.202-51.428l-1.601-7.604-84.645 84.645-127.068-127.068 42.022-42.022c46.025-46.025 45.424-44.624 23.012-44.824-39.621-0.4-79.442 16.009-108.058 44.624-47.225 47.425-57.231 117.463-25.814 179.696l5.203 10.205-391.81 391.81-15.008-7.004c-30.016-13.807-58.031-18.81-86.446-15.208-76.041 9.405-133.471 74.24-133.471 150.080 0 24.013-1.801 24.813 44.824-21.812l42.223-42.223 127.068 127.068-42.022 42.022c-34.218 34.218-41.422 42.223-38.421 43.423 5.403 2.401 42.022 0 55.43-3.602zM936.633 872.824c8.605-8.605 15.608-16.409 15.608-17.409 0-1.401-53.829-147.479-54.829-148.479 0-0.2-23.212-4.602-51.227-10.005l-51.027-9.405-98.052-97.852c-54.029-53.629-99.053-97.652-100.054-97.652-2.601 0-41.022 38.421-41.022 41.022 0 1.001 44.024 46.025 97.652 100.054l97.852 98.052 9.405 51.027c5.403 28.015 9.805 51.227 10.005 51.227 0 0.2 28.615 10.806 63.234 23.613s67.036 25.013 72.039 27.014c5.003 2.201 10.406 4.002 12.006 4.002 1.601 0.2 10.005-6.804 18.41-15.208zM356.523 165.646c-170.691-170.291-162.487-163.087-192.103-168.29-59.032-10.005-113.060 44.024-103.055 103.055 5.203 29.616-2.001 21.411 168.29 192.103l155.283 155.483 127.068-127.068-155.483-155.283zM246.264 225.278l-138.474-138.474 43.023-43.023 277.148 277.148-43.023 43.023-138.674-138.674z" />
<glyph unicode="&#xe918;" glyph-name="support" d="M458.972 944.054c-100.323-12.438-193.101-57.706-264.061-128.462-75.446-75.446-121.937-176.38-130.501-282.82l-1.427-17.74-11.827-7.137c-23.653-14.681-42.209-40.985-48.122-68.309-4.078-19.371-4.078-142.328 0.204-161.903 8.156-39.15 41.801-73.203 79.932-81.155 36.499-7.545 68.105 5.913 83.806 35.888l5.506 10.195v232.455l-5.506 10.195c-5.709 11.011-19.575 25.081-29.567 30.382-3.466 1.631-10.399 4.078-15.701 5.506l-9.584 2.447 1.223 9.38c8.36 64.231 17.74 96.856 42.005 145.386 56.89 113.577 165.369 193.305 292.608 214.919 26.1 4.282 77.077 5.913 103.789 3.059 122.752-13.254 228.581-77.689 295.055-179.643 32.014-48.938 53.628-106.44 60.765-161.087 4.69-36.296 5.302-31.81-5.506-34.46-5.098-1.427-12.031-3.874-15.497-5.506-9.991-5.302-23.857-19.371-29.567-30.382l-5.506-10.195v-232.455l5.506-10.195c5.709-11.011 19.575-25.081 29.567-30.382 3.466-1.631 10.399-4.078 15.497-5.506l9.584-2.243v-30.994c0-34.257-2.447-47.918-11.827-65.25-7.952-14.681-25.896-32.217-40.782-39.762-20.595-10.399-33.237-12.438-78.912-12.438h-40.782l-5.913 11.419c-7.341 13.866-23.042 27.935-37.927 33.849-10.603 4.282-14.477 4.486-64.231 4.486-50.977 0-53.424-0.204-65.25-4.69-17.128-6.933-35.48-25.285-41.597-42.005-6.729-17.536-5.506-44.044 2.651-59.745 7.341-14.477 20.187-26.916 35.072-34.257l12.031-5.913h114.188l11.623 5.709c13.458 6.525 27.731 20.187 34.46 33.033l4.69 8.768 48.938 1.020c55.055 1.020 62.804 2.243 89.923 15.497 29.567 14.681 53.22 38.131 67.493 67.493 12.438 25.081 13.662 31.81 14.681 78.912l0.816 43.025 11.623 7.341c24.265 14.885 42.413 40.578 48.326 68.309 4.078 19.167 4.078 142.328 0 161.495-5.913 27.324-24.469 53.628-47.918 68.105l-11.827 7.341-2.447 24.877c-9.176 94.409-43.636 176.176-105.828 250.195-61.58 73.611-154.766 128.666-249.787 147.833-47.103 9.38-99.303 11.623-144.163 6.117zM118.242 468.745l6.321-5.302v-209.005l-5.302-5.506c-11.623-11.419-39.15-4.486-55.463 14.070-13.866 15.905-14.681 20.799-14.681 95.837 0 74.834 0.816 79.932 14.477 95.633 16.72 18.963 41.393 25.488 54.647 14.274zM943.661 468.337c11.623-6.117 24.469-21.41 28.139-33.645 2.447-8.156 3.059-23.653 3.059-75.854 0-75.038-0.816-79.932-14.681-95.837-16.313-18.556-43.84-25.488-55.463-14.070l-5.302 5.506v208.802l5.709 5.709c5.098 5.098 6.525 5.506 17.74 4.486 6.729-0.408 16.109-2.855 20.799-5.098zM686.533 38.907c5.709-5.709 6.933-8.564 6.933-15.293 0-10.807-4.486-19.779-12.234-23.653-8.564-4.282-91.147-4.486-99.711-0.204-8.36 4.486-12.438 12.031-12.438 22.838 0 7.952 1.020 10.399 6.933 16.313l6.933 6.933h96.652l6.933-6.933zM339.686 708.54c-40.782-5.506-73.611-34.053-86.049-74.426-3.466-11.215-3.67-21.614-3.67-133.56 0-119.898 0-121.529 4.486-135.803 12.234-38.539 44.86-66.474 84.826-72.387l15.701-2.243v-28.955c0-34.257 2.855-46.491 13.458-58.318 14.885-16.313 38.742-21.614 57.91-12.642 6.321 2.855 24.877 19.575 58.114 52.2l48.938 48.122h70.348c38.742 0 76.262 1.020 83.602 2.039 15.905 2.447 38.335 13.254 51.385 24.469s25.285 30.178 30.79 47.714c4.486 14.274 4.486 15.905 4.486 135.803 0 111.945-0.204 122.345-3.67 133.56-10.399 33.849-35.276 59.745-68.513 70.756l-13.458 4.69-168.224 0.204c-92.574 0.204-173.729-0.408-180.458-1.223zM691.427 656.34c13.662-6.321 21.614-13.866 27.935-26.916l5.709-11.623v-117.247c0-114.596 0-117.451-4.282-126.423-6.117-13.254-14.070-21.818-26.1-28.139l-10.399-5.506-171.69-2.039-52.608-51.385c-28.751-28.343-53.22-51.589-54.239-51.589s-1.835 19.371-1.835 42.821c0 59.337-0.408 59.949-40.782 61.58-18.76 0.816-25.081 1.835-31.81 5.302-13.458 6.933-20.595 14.070-26.712 26.508l-5.709 11.623v116.227c0 90.331 0.612 117.859 2.651 123.772 6.525 18.148 22.838 32.421 41.393 36.092 4.894 1.020 83.398 1.631 174.137 1.631 162.922-0.408 165.369-0.408 174.341-4.69zM383.118 531.14c-14.681-4.486-26.1-19.575-26.1-34.664 0-16.517 13.254-32.217 29.974-35.684 13.458-2.651 31.606 6.525 38.335 19.575 3.874 7.341 3.874 24.877 0 32.217-4.078 7.952-14.070 15.905-23.042 18.556-8.564 2.243-11.419 2.243-19.167 0zM500.161 530.325c-9.991-3.466-19.983-14.274-22.838-24.673-7.137-25.488 18.352-51.385 43.025-44.044 19.779 5.913 31.402 25.692 26.304 44.044-4.078 14.885-19.983 27.12-34.664 27.12-2.855 0-8.156-1.020-11.827-2.447zM619.447 530.325c-9.176-3.263-16.924-9.991-21.003-17.944-3.67-7.137-3.67-24.673 0.204-32.014 6.729-13.050 24.877-22.226 38.335-19.575 16.313 3.466 29.974 19.983 29.974 35.888-0.204 23.857-25.488 41.801-47.511 33.645z" />
<glyph unicode="&#xe919;" glyph-name="filter" d="M1019.626 930.932c-8.244 18.876-22.511 28.315-42.87 28.326h-929.536c-20.331 0-34.619-9.45-42.85-28.326-8.226-19.843-4.84-36.798 10.172-50.834l358.030-358.020v-352.938c0-12.604 4.601-23.483 13.797-32.696l185.9-185.895c8.722-9.193 19.611-13.807 32.688-13.807 5.805 0 11.853 1.218 18.149 3.637 18.889 8.236 28.336 22.514 28.336 42.847v538.848l358.018 358.020c15.017 14.036 18.395 30.986 10.167 50.837z" />
<glyph unicode="&#xe91a;" glyph-name="down-fit" horiz-adv-x="1741" d="M1708.708 928.134c42.475-42.478 42.475-111.349 0-153.827l-838.314-838.314-838.315 838.315c-42.478 42.477-42.478 111.348 0 153.826s111.349 42.478 153.827 0l684.488-684.489 684.489 684.489c42.475 42.478 111.35 42.478 153.825 0z" />
<glyph unicode="&#xe91b;" glyph-name="sort" horiz-adv-x="1422" d="M308.058-23.499c18.072-18.073 47.374-18.073 65.446 0l294.507 294.502c18.073 18.073 18.073 47.375 0 65.448s-47.375 18.073-65.448 0l-261.781-261.781-261.784 261.781c-18.072 18.073-47.373 18.073-65.446 0s-18.072-47.375 0-65.448l294.507-294.502zM294.505 886.777v-877.555h92.554v877.555h-92.554zM1113.939 919.5c-18.073 18.072-47.37 18.072-65.442 0l-294.509-294.507c-18.073-18.073-18.073-47.374 0-65.446s47.375-18.073 65.448 0l261.781 261.784 261.781-261.784c18.073-18.073 47.375-18.073 65.448 0s18.073 47.373 0 65.446l-294.509 294.507zM1034.94 886.777v-877.555h92.554v877.555h-92.554z" />
<glyph unicode="&#xe91c;" horiz-adv-x="1055" d="M508.968 933.979c5.834 17.957 31.238 17.957 37.072 0l109.456-336.869c2.61-8.031 10.094-13.467 18.538-13.467h354.205c18.879 0 26.73-24.16 11.456-35.26l-286.559-208.195c-6.83-4.965-9.691-13.762-7.081-21.793l109.456-336.868c5.834-17.957-14.718-32.889-29.994-21.793l-286.559 208.198c-6.83 4.962-16.080 4.962-22.913 0l-286.556-208.198c-15.275-11.096-35.828 3.835-29.993 21.793l109.455 336.868c2.611 8.031-0.249 16.828-7.080 21.793l-286.558 208.195c-15.275 11.1-7.425 35.26 11.456 35.26h354.204c8.443 0 15.928 5.437 18.538 13.467l109.456 336.869z" />
<glyph unicode="&#xe91d;" horiz-adv-x="1055" d="M527.503 864.883l90.919-279.819c7.829-24.092 30.279-40.401 55.613-40.401h294.217l-238.027-172.938c-20.492-14.891-29.069-41.283-21.24-65.375l90.919-279.819-238.030 172.938c-20.492 14.888-48.243 14.888-68.735 0l-238.029-172.938 90.918 279.819c7.829 24.092-0.748 50.483-21.24 65.375l-238.028 172.938h294.218c25.333 0 47.784 16.31 55.613 40.401l90.916 279.819zM546.040 933.979c-5.834 17.957-31.238 17.957-37.072 0l-109.456-336.869c-2.61-8.031-10.094-13.467-18.538-13.467h-354.204c-18.881 0-26.731-24.16-11.456-35.26l286.558-208.195c6.831-4.965 9.691-13.762 7.080-21.793l-109.455-336.868c-5.835-17.957 14.718-32.889 29.993-21.793l286.556 208.198c6.833 4.962 16.083 4.962 22.913 0l286.559-208.198c15.276-11.096 35.828 3.835 29.994 21.793l-109.456 336.868c-2.61 8.031 0.251 16.828 7.081 21.793l286.559 208.195c15.273 11.1 7.422 35.26-11.456 35.26h-354.205c-8.446 0-15.928 5.437-18.538 13.467l-109.456 336.869z" />
</font>
</defs>
</svg>
